img image001 image001 image001 image001 image001 image001 image001 image001 image001 image001 image001 image001 image001 image001 image001

Planets Sun Sun Sun
Статистика раздачи
Автор: Снежана | Размер: 1.46 ГБ | Добавлен: 24 июл 2013
Раздают: 27    Качают: 2
Скачать торрент
Скачать торрент
Описание торрента

СообщениеДобавлено: 24 июл 2013 

#77
Страна: СССР
Производство: Мосфильм
Жанр: драма, военный, история
Год выпуска: 1970
Продолжительность: 03:04:31 (01:28:49 + 01:35:42)

Перевод: не требуется
Оригинальная аудиодорожка: русский
Cубтитры: нет

Режиссер: Александр Алов, Владимир Наумов

В ролях:
Людмила Савельева, Алексей Баталов, Михаил Ульянов, Татьяна Ткач, Владислав Дворжецкий, Евгений Евстигнеев, Роман Хомятов, Владимир Заманский, Николай Олялин, Бруно Фрейндлих, Владимир Осенев, Александр Январёв, Владимир Басов, Тамара Логинова, Олег Ефремов, Алексей Наумов, Павел Шпрингфельд, Николай Сергеев, Станислав Хитров, Готлиб Ронинсон, Наталья Варлей, Павел Винник, Михаил Глузский, Микаэла Дроздовская, Валерий Золотухин, Наум Коржавин, Игорь Ясулович, Василий Бочкарёв...

Описание:
1920 год. Гражданская война в России близится к завершению. После вторжения Красной Армии в Крым начинается исход всех, кто искал спасения от «окаянных дней» революции. В этом страшном течении оказываются рядом самые разные люди — беззащитная Серафима Корзухина и "полковая дама" Люська, приват-доцент Голубков и генерал Хлудов. Выброшенные в «тараканьи бега» стамбульской эмиграционной жизни, русские интеллигенты теряют почву под ногами. Последним шансом спасти Серафиму становится поездка Голубкова и генерала Чарноты в Париж — на розыски ее сбежавшего мужа. Поездка приводит к поразительным результатам…





Исходник: DVD9 R5
Тип релиза: DVDRip
Контейнер: AVI

Видео: 704x288 (2.40:1), 25 fps, XviD ~ 993 kbps avg, 0.196 bit/pixel
Аудио: 48 kHz, MP3 2.0, 128 kbps

Раздача от:
Общее
Полное имя : Beg.1970.DVDRip-1.46_[Youtracker]_by_AVP Studio.avi
Формат : AVI
Формат/Информация : Audio Video Interleave
Размер файла : 718 Мбайт
Продолжительность : 1 ч. 28 м.
Общий поток : 1131 Кбит/сек
Программа кодирования : VirtualDubModRus 1.5.10.2 (build 2542/release)
Библиотека кодирования : VirtualDubMod build 2542/release

Видео
Идентификатор : 0
Формат : MPEG-4 Visual
Профиль формата : Advanced Simple@L5
Параметр BVOP формата : 1
Параметр QPel формата : Нет
Параметр GMC формата : Без точки перехода
Параметр матрицы формата : Выборочная
Идентификатор кодека : XVID
Идентификатор кодека/Подсказка : XviD
Продолжительность : 1 ч. 28 м.
Битрейт : 993 Кбит/сек
Ширина : 704 пикселя
Высота : 288 пикселей
Соотношение сторон : 2,40:1
Частота кадров : 25,000 кадров/сек
Цветовое пространство : YUV
Субдискретизация насыщенности : 4:2:0
Битовая глубина : 8 бит
Тип развёртки : Прогрессивная
Метод сжатия : С потерями
Бит/(Пиксели*Кадры) : 0.196
Размер потока : 631 Мбайт (88%)
Библиотека кодирования : XviD 65

Аудио
Идентификатор : 1
Формат : MPEG Audio
Версия формата : Version 1
Профиль формата : Layer 3
Идентификатор кодека : 55
Идентификатор кодека/Подсказка : MP3
Продолжительность : 1 ч. 28 м.
Вид битрейта : Постоянный
Битрейт : 128 Кбит/сек
Каналы : 2 канала
Частота : 48,0 КГц
Метод сжатия : С потерями
Размер потока : 81,3 Мбайт (11%)
Выравнивание : Соединение по промежуткам
Продолжительность промежутка : 40 мс. (1,00 видеокадр)
Время предзагрузки промежутка : 504 мс.
Библиотека кодирования : L3.99r
Настройки программы : -m s -V 4 -q 2 -lowpass 17 -b 128





   Похожие торренты   Торрент   Размер 
В этой теме нет новых непрочитанных сообщений. Бег (1970) DVDRip от Youtracker

10 | 4

2.19 ГБ

В этой теме нет новых непрочитанных сообщений. Бег (1970) DVDRip-AVC от Youtracker

11 | 3

2.18 ГБ

В этой теме нет новых непрочитанных сообщений. О любви (1970) DVDRip от Youtracker

45 | 7

1.09 ГБ

В этой теме нет новых непрочитанных сообщений. Один из нас (1970) DVDRip от Youtracker

11 | 5

1.46 ГБ

В этой теме нет новых непрочитанных сообщений. Один из нас (1970) DVDRip от Youtracker

18 | 4

744.25 МБ

В этой теме нет новых непрочитанных сообщений. Один из нас (1970) DVDRip-AVC от Youtracker

4 | 5

1.46 ГБ

В этой теме нет новых непрочитанных сообщений. Песни моря (1970) DVDRip от Youtracker

28 | 3

1.45 ГБ




Вы не можете начинать темы
Вы не можете отвечать на сообщения
Вы не можете редактировать свои сообщения
Вы не можете удалять свои сообщения
Вы не можете добавлять вложения

Перейти:  
Для Мосгорсуда, Роскомнадзора и рекламодателей: mosgorsud-torrent[собачка]yandex.ru
 Вход
ppkBB3cker v.2 © 2008-2014 @ PPK
[ Time : 0.041s | 14 Queries | GZIP : On ]

Торрент трекер RUTOR.IN, Не можете зайти на rutor.org? Какой новый адрес рутор? Какое зеркало рутор? Не работает rutor.org и зеркала? Тогда наш торрент специально для вас. Rutor.in неофициальное зеркало rutor. В случае если у Вас заблокирован rutor или вдруг Вы не можете на него зайти, то Вы без труда сможете скачать бесплатно и без рекламы последние новинки кино, игр, сериалов и прочего у нас, на Rutor.in. Не нужно использовать прокси, чтобы зайти на рутор, достаточно воспользоваться нашим ресурсом. Все новые фильмы, игры, сериалы, книги и музыка за 2013 и 2014 годы через торрент бесплатно. Скачивайте фильмы в хорошем качестве, игры для пк, xbox, playstation без регистрации. У нас вы найдете новые Зарубежные сериалы и Русские сериалы 2013, 2014, 2015 годов. Оставайтесь с нами, качайте любимые фильмы, игры, сериалы, книги и музыку.