img image001 image001 image001 image001 image001 image001 image001 image001 image001 image001 image001 image001 image001 image001 image001

Planets Sun Sun Sun
Статистика раздачи
Автор: Снежана | Размер: 2.19 ГБ | Добавлен: 24 июл 2013
Раздают: 75    Качают: 5
Скачать торрент
Скачать торрент
Описание торрента

СообщениеДобавлено: 24 июл 2013 

#77
Страна: СССР
Студия: Мосфильм
Жанр: мелодрама
Год выпуска: 1982
Продолжительность: 01:08:56 + 01:03:42

Перевод: не требуется
Оригинальная аудиодорожка: русский
Cубтитры: русский, английский

Режиссер: Эльдар Рязанов

В ролях: Людмила Гурченко, Олег Басилашвили, Никита Михалков, Нонна Мордюкова, Михаил Кононов, Анастасия Вознесенская, Александр Ширвиндт, Татьяна Догилева, Ольга Волкова, Раиса Этуш...

Описание: Город Заступинск, где-то между Москвой и Алма-Атой, ближе к Воронежу. Вокзальная буфетчица Вера и пианист Платон Рябинин из Москвы познакомились при весьма непривлекательных обстоятельствах. В результате Вера потеряла жениха с дынями, но нашла любимого, который вскоре должен отбыть в отдаленные места, чтобы нести наказание за несовершенное преступление…






Качество: DVDRip-AVC (DVD9 R5)
Формат: MKV

Видео: 704x556@768x556 (4:3), 25.000 fps, H264 ~ 1909 kbps avg, 0.195 bit/pixel
Аудио: 48 kHz, АС3 6 ch, 448 kbps, русский

Раздача от:
Общее
Полное имя : Vokzal.dlya.dvoih.1982.O.DVDRip-AVC_[Youtracker]_by_avproh1.mkv
Формат : Matroska
Версия формата : Version 4 / Version 2
Размер файла : 1,14 Гбайт
Продолжительность : 1 ч. 8 м.
Общий поток : 2359 Кбит/сек
Дата кодирования : UTC 2013-07-13 11:24:42
Программа кодирования : mkvmerge v6.1.0 ('Old Devil') built on Mar 2 2013 14:32:37
Библиотека кодирования : libebml v1.3.0 + libmatroska v1.4.0

Видео
Идентификатор : 1
Формат : AVC
Формат/Информация : Advanced Video Codec
Профиль формата : High@L4.1
Параметр CABAC формата : Да
Параметр ReFrames формата : 11 кадров
Идентификатор кодека : V_MPEG4/ISO/AVC
Продолжительность : 1 ч. 8 м.
Битрейт : 1909 Кбит/сек
Ширина : 704 пикселя
Высота : 556 пикселей
Соотношение сторон : 4:3
Соотношение сторон в оригинале : 4:3
Режим частоты кадров : Постоянный
Частота кадров : 25,000 кадров/сек
Цветовое пространство : YUV
Субдискретизация насыщенности : 4:2:0
Битовая глубина : 8 бит
Тип развёртки : Прогрессивная
Бит/(Пиксели*Кадры) : 0.195
Размер потока : 920 Мбайт (79%)
Библиотека кодирования : x264 core 130 r2273 b3065e6
Настройки программы : cabac=1 / ref=11 / deblock=1:-2:-1 / analyse=0x3:0x113 / me=umh / subme=9 / psy=1 / psy_rd=1.00:0.20 / mixed_ref=1 / me_range=32 / chroma_me=1 / trellis=1 / 8x8dct=1 / cqm=0 / deadzone=21,11 / fast_pskip=0 / chroma_qp_offset=-3 / threads=9 / lookahead_threads=1 / sliced_threads=0 / nr=0 / decimate=0 / interlaced=0 / bluray_compat=0 / constrained_intra=0 / bframes=8 / b_pyramid=2 / b_adapt=2 / b_bias=0 / direct=3 / weightb=1 / open_gop=0 / weightp=2 / keyint=250 / keyint_min=25 / scenecut=40 / intra_refresh=0 / rc_lookahead=60 / rc=2pass / mbtree=1 / bitrate=1909 / ratetol=1.0 / qcomp=0.60 / qpmin=0 / qpmax=69 / qpstep=4 / cplxblur=20.0 / qblur=0.5 / ip_ratio=1.40 / aq=1:1.00
Язык : Russian
Default : Да
Forced : Нет

Аудио
Идентификатор : 2
Формат : AC-3
Формат/Информация : Audio Coding 3
Расширение режима : CM (complete main)
Параметр Endianness формата : Big
Идентификатор кодека : A_AC3
Продолжительность : 1 ч. 8 м.
Вид битрейта : Постоянный
Битрейт : 448 Кбит/сек
Каналы : 6 каналов
Расположение каналов : Front: L C R, Side: L R, LFE
Частота : 48,0 КГц
Битовая глубина : 16 бит
Метод сжатия : С потерями
Размер потока : 221 Мбайт (19%)
Язык : Russian
Default : Да
Forced : Нет

Текст #1
Идентификатор : 3
Формат : UTF-8
Идентификатор кодека : S_TEXT/UTF8
Идентификатор кодека/Информация : UTF-8 Plain Text
Язык : Russian
Default : Нет
Forced : Нет

Текст #2
Идентификатор : 4
Формат : UTF-8
Идентификатор кодека : S_TEXT/UTF8
Идентификатор кодека/Информация : UTF-8 Plain Text
Язык : English
Default : Нет
Forced : Нет

Меню
00:00:00.000 : ru:Пролог. Титры
00:06:19.200 : ru:Время стоянки - 20 минут
00:19:50.400 : ru:Паспорт ту-ту...
00:31:58.080 : ru:Вечером в ресторане
00:38:32.640 : ru:"Зал ожидания"
00:46:43.200 : ru:Ночная трапеза
00:50:34.560 : ru:Дядя Миша
00:57:24.480 : ru:На рынке





   Похожие торренты   Торрент   Размер 
В этой теме нет новых непрочитанных сообщений. Вокзал для двоих (1982) DVDRip от Youtracker

66 | 15

1.45 ГБ

В этой теме нет новых непрочитанных сообщений. Вокзал для двоих (1982) DVDRip-AVC от Youtracker

12 | 4

1.46 ГБ

В этой теме нет новых непрочитанных сообщений. Вокзал для двоих (1982) DVDRip от Youtracker

7 | 3

2.19 ГБ

В этой теме нет новых непрочитанных сообщений. Вокзал для двоих (1982) DVD9 R5 от Youtracker

14 | 6

7.46 ГБ

В этой теме нет новых непрочитанных сообщений. Вокзал для двоих (1982) DVDRip-AVC

47 | 8

1.45 ГБ

В этой теме нет новых непрочитанных сообщений. Вокзал для двоих (1982) DVDRip от MediaClub

106 | 75

2.17 ГБ

В этой теме нет новых непрочитанных сообщений. Вокзал для двоих (1982) DVDRip от MediaClub

735 | 22

2.74 ГБ




Вы не можете начинать темы
Вы не можете отвечать на сообщения
Вы не можете редактировать свои сообщения
Вы не можете удалять свои сообщения
Вы не можете добавлять вложения

Перейти:  
Для Мосгорсуда, Роскомнадзора и рекламодателей: mosgorsud-torrent[собачка]yandex.ru
 Вход
ppkBB3cker v.2 © 2008-2014 @ PPK
[ Time : 2.613s | 15 Queries | GZIP : Off ]

Торрент трекер RUTOR.IN, Не можете зайти на rutor.org? Какой новый адрес рутор? Какое зеркало рутор? Не работает rutor.org и зеркала? Тогда наш торрент специально для вас. Rutor.in неофициальное зеркало rutor. В случае если у Вас заблокирован rutor или вдруг Вы не можете на него зайти, то Вы без труда сможете скачать бесплатно и без рекламы последние новинки кино, игр, сериалов и прочего у нас, на Rutor.in. Не нужно использовать прокси, чтобы зайти на рутор, достаточно воспользоваться нашим ресурсом. Все новые фильмы, игры, сериалы, книги и музыка за 2013 и 2014 годы через торрент бесплатно. Скачивайте фильмы в хорошем качестве, игры для пк, xbox, playstation без регистрации. У нас вы найдете новые Зарубежные сериалы и Русские сериалы 2013, 2014, 2015 годов. Оставайтесь с нами, качайте любимые фильмы, игры, сериалы, книги и музыку.
cron