img image001 image001 image001 image001 image001 image001 image001 image001 image001 image001 image001 image001 image001 image001 image001

Planets Sun Sun Sun
Статистика раздачи
Автор: Снежана | Размер: 2.18 ГБ | Добавлен: 24 июл 2013
Раздают: 11    Качают: 3
Скачать торрент
Скачать торрент
Описание торрента

СообщениеДобавлено: 24 июл 2013 

#77
Страна: СССР
Производство: Мосфильм
Жанр: драма, военный, история
Год выпуска: 1970
Продолжительность: 03:04:31 (01:28:49 + 01:35:42)

Перевод: не требуется
Оригинальная аудиодорожка: русский
Cубтитры: нет

Режиссер: Александр Алов, Владимир Наумов

В ролях:
Людмила Савельева, Алексей Баталов, Михаил Ульянов, Татьяна Ткач, Владислав Дворжецкий, Евгений Евстигнеев, Роман Хомятов, Владимир Заманский, Николай Олялин, Бруно Фрейндлих, Владимир Осенев, Александр Январёв, Владимир Басов, Тамара Логинова, Олег Ефремов, Алексей Наумов, Павел Шпрингфельд, Николай Сергеев, Станислав Хитров, Готлиб Ронинсон, Наталья Варлей, Павел Винник, Михаил Глузский, Микаэла Дроздовская, Валерий Золотухин, Наум Коржавин, Игорь Ясулович, Василий Бочкарёв...

Описание:
1920 год. Гражданская война в России близится к завершению. После вторжения Красной Армии в Крым начинается исход всех, кто искал спасения от «окаянных дней» революции. В этом страшном течении оказываются рядом самые разные люди — беззащитная Серафима Корзухина и "полковая дама" Люська, приват-доцент Голубков и генерал Хлудов. Выброшенные в «тараканьи бега» стамбульской эмиграционной жизни, русские интеллигенты теряют почву под ногами. Последним шансом спасти Серафиму становится поездка Голубкова и генерала Чарноты в Париж — на розыски ее сбежавшего мужа. Поездка приводит к поразительным результатам…





Исходник: DVD9 R5
Тип релиза: DVDRip-AVC
Контейнер: MKV

Видео: 704->888x412 (2.40:1), 25 fps, H264 ~ 1245 kbps avg, 0.172 bit/pixel
Аудио: 48 kHz, Dolby AC3 5.1, 448 kbps

Раздача от:
Общее
Полное имя : Beg.1970.DVDRip-AVC_[Youtracker]_by_AVP Studio.mkv
Формат : Matroska
Версия формата : Version 2
Размер файла : 1,05 Гбайт
Продолжительность : 1 ч. 28 м.
Общий поток : 1695 Кбит/сек
Дата кодирования : UTC 2013-07-13 09:42:32
Программа кодирования : mkvmerge v5.0.1 ('Es ist Sommer') built on Nov 6 2011 16:23:40
Библиотека кодирования : libebml v1.2.2 + libmatroska v1.3.0

Видео
Идентификатор : 1
Формат : AVC
Формат/Информация : Advanced Video Codec
Профиль формата : High@L4.1
Параметр CABAC формата : Да
Параметр ReFrames формата : 11 кадров
Идентификатор кодека : V_MPEG4/ISO/AVC
Продолжительность : 1 ч. 28 м.
Битрейт : 1245 Кбит/сек
Ширина : 704 пикселя
Высота : 414 пикселей
Соотношение сторон : 2,40:1
Частота кадров : 25,000 кадров/сек
Цветовое пространство : YUV
Субдискретизация насыщенности : 4:2:0
Битовая глубина : 8 бит
Тип развёртки : Прогрессивная
Бит/(Пиксели*Кадры) : 0.172
Размер потока : 771 Мбайт (72%)
Библиотека кодирования : x264 core 130 r2273 b3065e6
Настройки программы : cabac=1 / ref=11 / deblock=1:-2:-1 / analyse=0x3:0x113 / me=umh / subme=9 / psy=1 / psy_rd=1.00:0.20 / mixed_ref=1 / me_range=32 / chroma_me=1 / trellis=1 / 8x8dct=1 / cqm=0 / deadzone=21,11 / fast_pskip=0 / chroma_qp_offset=-3 / threads=3 / lookahead_threads=1 / sliced_threads=0 / nr=0 / decimate=0 / interlaced=0 / bluray_compat=0 / constrained_intra=0 / bframes=8 / b_pyramid=2 / b_adapt=2 / b_bias=0 / direct=3 / weightb=1 / open_gop=0 / weightp=2 / keyint=250 / keyint_min=25 / scenecut=40 / intra_refresh=0 / rc_lookahead=60 / rc=2pass / mbtree=1 / bitrate=1245 / ratetol=1.0 / qcomp=0.60 / qpmin=0 / qpmax=69 / qpstep=4 / cplxblur=20.0 / qblur=0.5 / ip_ratio=1.40 / aq=1:1.00
Default : Да
Forced : Нет

Аудио
Идентификатор : 2
Формат : AC-3
Формат/Информация : Audio Coding 3
Расширение режима : CM (complete main)
Идентификатор кодека : A_AC3
Продолжительность : 1 ч. 28 м.
Вид битрейта : Постоянный
Битрейт : 448 Кбит/сек
Каналы : 6 каналов
Расположение каналов : Front: L C R, Side: L R, LFE
Частота : 48,0 КГц
Битовая глубина : 16 бит
Метод сжатия : С потерями
Размер потока : 285 Мбайт (26%)
Default : Да
Forced : Нет





   Похожие торренты   Торрент   Размер 
В этой теме нет новых непрочитанных сообщений. Бег (1970) DVDRip от Youtracker

27 | 2

1.46 ГБ

В этой теме нет новых непрочитанных сообщений. Бег (1970) DVDRip от Youtracker

10 | 4

2.19 ГБ

В этой теме нет новых непрочитанных сообщений. Один из нас (1970) DVDRip-AVC от Youtracker

4 | 5

1.46 ГБ

В этой теме нет новых непрочитанных сообщений. Один из нас (1970) DVDRip от Youtracker

18 | 4

744.25 МБ

В этой теме нет новых непрочитанных сообщений. Один из нас (1970) DVDRip от Youtracker

11 | 5

1.46 ГБ

В этой теме нет новых непрочитанных сообщений. О любви (1970) DVDRip от Youtracker

45 | 7

1.09 ГБ

В этой теме нет новых непрочитанных сообщений. Волшебная сила (1970) DVDRip от Youtracker

299 | 34

1.3 ГБ




Вы не можете начинать темы
Вы не можете отвечать на сообщения
Вы не можете редактировать свои сообщения
Вы не можете удалять свои сообщения
Вы не можете добавлять вложения

Перейти:  
Для Мосгорсуда, Роскомнадзора и рекламодателей: mosgorsud-torrent[собачка]yandex.ru
 Вход
ppkBB3cker v.2 © 2008-2014 @ PPK
[ Time : 0.033s | 17 Queries | GZIP : Off ]

Торрент трекер RUTOR.IN, Не можете зайти на rutor.org? Какой новый адрес рутор? Какое зеркало рутор? Не работает rutor.org и зеркала? Тогда наш торрент специально для вас. Rutor.in неофициальное зеркало rutor. В случае если у Вас заблокирован rutor или вдруг Вы не можете на него зайти, то Вы без труда сможете скачать бесплатно и без рекламы последние новинки кино, игр, сериалов и прочего у нас, на Rutor.in. Не нужно использовать прокси, чтобы зайти на рутор, достаточно воспользоваться нашим ресурсом. Все новые фильмы, игры, сериалы, книги и музыка за 2013 и 2014 годы через торрент бесплатно. Скачивайте фильмы в хорошем качестве, игры для пк, xbox, playstation без регистрации. У нас вы найдете новые Зарубежные сериалы и Русские сериалы 2013, 2014, 2015 годов. Оставайтесь с нами, качайте любимые фильмы, игры, сериалы, книги и музыку.