img image001 image001 image001 image001 image001 image001 image001 image001 image001 image001 image001 image001 image001 image001 image001

Planets Sun Sun Sun
Статистика раздачи
Автор: Снежана | Размер: 1.54 ГБ | Добавлен: 24 июл 2013
Раздают: 65    Качают: 3
Скачать торрент
Скачать торрент
Описание торрента

СообщениеДобавлено: 24 июл 2013 

#77

Информация о фильме
Название: Такси-блюз
Год выхода: 1990
Жанр: Драма
Режиссер: Павел Лунгин
В ролях: Петр Мамонов, Петр Зайченко, Наталья Коляканова /Natalya Kolyakanova/, Елена Сафонова, Владимир Кашпур, Хол Сингер, Сергей Газаров /Sergei Gazarov/, Евгений Герчаков, Дмитрий Пригов, Игорь Золотовицкий, Валерий Хлевинский

О фильме:
Таксист (в исполнении Петра Зайченко) становится свидетелем и участником пьяного загула музыканта и его богемной компании. Он возит их по Москве, продает им свою водку, а потом клиент скрывается, не заплатив. Бывший лидер группы “Звуки “МУ” Петр Мамонов играет у Павла Лунгина бомжа Селиверстова, необычайно талантливого музыканта саксофониста. Играет он на контрастах – от истерично-пьяного бреда и плача, его героя вдруг прорывает к рассуждениям о бессмысленности жизни и всеобщего несчастья. Таксист находит своего несостоятельного должника и здесь начинается драматическая история их взаимоотношений, где только музыка может выразить чувства, обуревающие и таксиста, и саксофониста…

Страна: СССР-Франция
Студия: ASK Eurofilm, Centre National de la Cinématographie (CNC), La Sept Ciném
Продолжительность: 01:45:32
Перевод: не требуется

Файл
Кодек: h.264
Качество: DVDRip-AVC
Видео: 640x560 (1.636) @ 916x560 (анаморф), 25.000 fps, AVC, ~1891 Kbps, 0.211 bits/pixel
Звук: Русский, 48.0 KHz, AC3, 2 ch, 192 Kbps
Субтитры: нет

Исходник - R2 DVD9 MK2

Общее
Уникальный идентификатор : 230935821477017789938039130983508582902 (0xADBC9F12DA64384595DAFDEFC445A1F6)
Полное имя : D:FilmsTaksi_bluz.1990.DVDRip-AVC.mkv
Формат : Matroska
Версия формата : Version 4 / Version 2
Размер файла : 1,54 Гбайт
Продолжительность : 1 ч. 45 м.
Общий поток : 2085 Кбит/сек
Дата кодирования : UTC 2013-07-13 19:40:26
Программа кодирования : mkvmerge v6.2.0 ('Promised Land') built on Apr 28 2013 12:22:01
Библиотека кодирования : libebml v1.3.0 + libmatroska v1.4.0

Видео
Идентификатор : 1
Формат : AVC
Формат/Информация : Advanced Video Codec
Профиль формата : High@L4.1
Параметр CABAC формата : Да
Параметр ReFrames формата : 16 кадров
Идентификатор кодека : V_MPEG4/ISO/AVC
Продолжительность : 1 ч. 45 м.
Битрейт : 1891 Кбит/сек
Ширина : 640 пикселей
Высота : 560 пикселей
Соотношение сторон : 16:10
Режим частоты кадров : Постоянный
Частота кадров : 25,000 кадров/сек
Цветовое пространство : YUV
Субдискретизация насыщенности : 4:2:0
Битовая глубина : 8 бит
Тип развёртки : Прогрессивная
Бит/(Пиксели*Кадры) : 0.211
Размер потока : 1,36 Гбайт (89%)
Библиотека кодирования : x264 core 133 r2334 a3ac64b
Настройки программы : cabac=1 / ref=16 / deblock=1:0:0 / analyse=0x3:0x133 / me=umh / subme=10 / psy=1 / psy_rd=1.05:0.10 / mixed_ref=1 / me_range=32 / chroma_me=1 / trellis=2 / 8x8dct=1 / cqm=0 / deadzone=21,11 / fast_pskip=0 / chroma_qp_offset=-3 / threads=8 / lookahead_threads=2 / sliced_threads=0 / nr=0 / decimate=0 / interlaced=0 / bluray_compat=0 / constrained_intra=0 / bframes=10 / b_pyramid=2 / b_adapt=2 / b_bias=0 / direct=3 / weightb=1 / open_gop=0 / weightp=2 / keyint=250 / keyint_min=25 / scenecut=40 / intra_refresh=0 / rc_lookahead=60 / rc=2pass / mbtree=0 / bitrate=1891 / ratetol=1.0 / qcomp=0.60 / qpmin=0 / qpmax=60 / qpstep=4 / cplxblur=20.0 / qblur=0.5 / vbv_maxrate=50000 / vbv_bufsize=62500 / nal_hrd=none / ip_ratio=1.40 / pb_ratio=1.30 / aq=1:1.00
Default : Нет
Forced : Нет
Коэффициенты матрицы : BT.601

Аудио
Идентификатор : 2
Формат : AC-3
Формат/Информация : Audio Coding 3
Расширение режима : CM (complete main)
Параметр Endianness формата : Big
Идентификатор кодека : A_AC3
Продолжительность : 1 ч. 45 м.
Вид битрейта : Постоянный
Битрейт : 192 Кбит/сек
Каналы : 2 канала
Расположение каналов : Front: L R
Частота : 48,0 КГц
Битовая глубина : 16 бит
Метод сжатия : С потерями
Задержка видео : 240 мс.
Размер потока : 145 Мбайт (9%)
Язык : Russian
Default : Да
Forced : Нет

Меню
00:00:00.000 : en:Chapter 01
00:10:57.600 : en:Chapter 02
00:19:12.960 : en:Chapter 03
00:25:39.360 : en:Chapter 04
00:36:20.160 : en:Chapter 05
00:46:56.800 : en:Chapter 06
01:03:34.080 : en:Chapter 07
01:13:54.080 : en:Chapter 08
01:25:31.200 : en:Chapter 09
01:39:36.640 : en:Chapter 10


frame I:867 Avg QP:13.67 size: 54222
frame P:36166 Avg QP:16.56 size: 21089
frame B:121272 Avg QP:18.19 size: 5666



Релиз от: Temperest



   Похожие торренты   Торрент   Размер 
В этой теме нет новых непрочитанных сообщений. Такси-блюз (1990) DVDRip

7 | 5

1.45 ГБ

В этой теме нет новых непрочитанных сообщений. Такси-блюз (1990) DVDRip от Pasha74

6 | 3

1.53 ГБ

В этой теме нет новых непрочитанных сообщений. Такси-блюз (1990) DVDRip-AVC от ExKinoRay

102 | 9

1.78 ГБ

В этой теме нет новых непрочитанных сообщений. Такси-блюз / Taxi-Blues (1990) DVDRip

26 | 10

1.33 ГБ

В этой теме нет новых непрочитанных сообщений. Такси-Блюз / Taxi-Blues (1990) DVD5

9 | 2

4.35 ГБ

В этой теме нет новых непрочитанных сообщений. Блюз о лучшей жизни / Mo' Better Blues (1990) DVDRip от Alekxandr48 | P2

4 | 2

1.37 ГБ

В этой теме нет новых непрочитанных сообщений. Блюз о лучшей жизни / Mo' Better Blues (1990) DVDRip от NovaLan

3 | 10

2.06 ГБ




Вы не можете начинать темы
Вы не можете отвечать на сообщения
Вы не можете редактировать свои сообщения
Вы не можете удалять свои сообщения
Вы не можете добавлять вложения

Перейти:  
Для Мосгорсуда, Роскомнадзора и рекламодателей: mosgorsud-torrent[собачка]yandex.ru
 Вход
ppkBB3cker v.2 © 2008-2014 @ PPK
[ Time : 0.033s | 14 Queries | GZIP : Off ]

Торрент трекер RUTOR.IN, Не можете зайти на rutor.org? Какой новый адрес рутор? Какое зеркало рутор? Не работает rutor.org и зеркала? Тогда наш торрент специально для вас. Rutor.in неофициальное зеркало rutor. В случае если у Вас заблокирован rutor или вдруг Вы не можете на него зайти, то Вы без труда сможете скачать бесплатно и без рекламы последние новинки кино, игр, сериалов и прочего у нас, на Rutor.in. Не нужно использовать прокси, чтобы зайти на рутор, достаточно воспользоваться нашим ресурсом. Все новые фильмы, игры, сериалы, книги и музыка за 2013 и 2014 годы через торрент бесплатно. Скачивайте фильмы в хорошем качестве, игры для пк, xbox, playstation без регистрации. У нас вы найдете новые Зарубежные сериалы и Русские сериалы 2013, 2014, 2015 годов. Оставайтесь с нами, качайте любимые фильмы, игры, сериалы, книги и музыку.