img image001 image001 image001 image001 image001 image001 image001 image001 image001 image001 image001 image001 image001 image001 image001

Planets Sun Sun Sun
Статистика раздачи
Автор: Снежана | Размер: 4.19 ГБ | Добавлен: 24 июл 2013
Раздают: 109    Качают: 5
Скачать торрент
Скачать торрент
Описание торрента

СообщениеДобавлено: 24 июл 2013 

#77

Информация о фильме
Название: Они сражались за Родину
Год выхода: 1975
Жанр: Драма, военный, история
Режиссер: Сергей Бондарчук
В ролях: Василий Шукшин, Вячеслав Тихонов, Сергей Бондарчук, Георгий Бурков, Юрий Никулин, Иван Лапиков, Николай Губенко, Андрей Ростоцкий, Николай Волков, Николай Шутько, Евгений Самойлов, Нонна Мордюкова, Иннокентий Смоктуновский, Ангелина Степанова, Ирина Скобцева, Татьяна Божок, Лидия Федосеева-Шукшина, Даниил Ильченко, Алексей Ванин, Николай Горлов, Геннадий Сафронов, Борис Никифоров

О фильме:
По мотивам одноимённого произведения М.А. Шолохова. Июль 1942 года. На подступах к Сталинграду обескровленные, измотанные советские войска ведут тяжёлые оборонительные бои, неся огромные потери… Они не сломлены неудачами и не потеряли веры в победу. Временами им кажется, что нет никакой войны. На дороге - широкие следы танковых гусениц, чётко отпечатанные в серой пыли. А по сторонам – словно вымершая от зноя степь: устало полёгшие травы, тускло блестящие солончаки, голубое и трепетное марево над дальними курганами. В абсурдном столкновении тёплой дышащей земли и бесчеловечной машины войны - сильнейшее библейское обобщение, метафора противостояния вечной жизни тёмным силам зла.

Награды:
• В 1975 г к 30-летию Победы фильм был номинирован от СССР на золотую пальмовую ветвь Каннского кинофестиваля. Из-за запрета на номинирование "Зеркала" Андрея Тарковского жюри кинофестиваля прокатило один из лучших фильмов о Великой Отечественной войне.
• Лучший фильм года, Василий Шукшин - лучший актер года по опросу журнала "Советский экран"
• Премия Союза антифашистских борцов Чехословакии на XX МКФ в Карловых Варах, 1976
• Премия за режиссёрскую работу С. Бондарчуку и премия за лучшее исполнение 27 мужских ролей солдат на XIV МКФ в Панаме, 1976
• Государственная премия РСФСР им. бр. Васильевых режиссёру С. Бондарчуку и оператору В. Юсову, 1977
• Премия Ленинского комсомола композитору В. Овчинникову, 1977



Страна: СССР
Студия: Мосфильм
Продолжительность: 01:18:29 + 01:13:20
Перевод: Не требуется

Файл
Качество: WEB-DL
Формат: MP4
Видео:
1 серия - AVC MPEG-4, 1920х1080 (16:9), 25 fps, 4056 Kbps, 0.08 bpp
2 серия - AVC MPEG-4, 1920х1080 (16:9), 25 fps, 3445 Kbps, 0.07 bpp
Аудио: AAC-LC, 44.1 kHz, 2 ch, 192 Kbps, VBR

Полное имя : Za RodinuPart 1.mp4
Формат : MPEG-4
Профиль формата : Base Media / Version 2
Идентификатор кодека : mp42
Размер файла : 2,33 Гбайт
Продолжительность : 1 ч. 18 м.
Режим общего битрейта : Переменный
Общий поток : 4251 Кбит/сек
Дата кодирования : UTC 2013-06-06 13:45:39

Видео
Идентификатор : 1
Формат : AVC
Формат/Информация : Advanced Video Codec
Профиль формата : High@L4.0
Параметр CABAC формата : Да
Параметр ReFrames формата : 1 кадр
Идентификатор кодека : avc1
Идентификатор кодека/Информация : Advanced Video Coding
Продолжительность : 1 ч. 18 м.
Битрейт : 4056 Кбит/сек
Максимальный битрейт : 10,7 Мбит/сек
Ширина : 1920 пикселей
Высота : 1080 пикселей
Соотношение сторон : 16:9
Режим частоты кадров : Постоянный
Частота кадров : 25,000 кадров/сек
Цветовое пространство : YUV
Субдискретизация насыщенности : 4:2:0
Битовая глубина : 8 бит
Тип развёртки : Прогрессивная
Бит/(Пиксели*Кадры) : 0.078
Размер потока : 2,22 Гбайт (95%)
Дата пометки : UTC 2013-06-06 14:24:01

Аудио
Идентификатор : 2
Формат : AAC
Формат/Информация : Advanced Audio Codec
Профиль формата : LC
Идентификатор кодека : 40
Продолжительность : 1 ч. 18 м.
Вид битрейта : Переменный
Битрейт : 192 Кбит/сек
Максимальный битрейт : 201 Кбит/сек
Каналы : 2 канала
Расположение каналов : Front: L R
Частота : 44,1 КГц
Метод сжатия : С потерями
Размер потока : 108 Мбайт (5%)
Дата кодирования : UTC 2013-06-06 13:56:59

Полное имя : Za RodinuPart 2.mp4
Формат : MPEG-4
Профиль формата : Base Media / Version 2
Идентификатор кодека : mp42
Размер файла : 1,86 Гбайт
Продолжительность : 1 ч. 13 м.
Режим общего битрейта : Переменный
Общий поток : 3639 Кбит/сек
Дата кодирования : UTC 2013-06-06 08:38:38

Видео
Идентификатор : 1
Формат : AVC
Формат/Информация : Advanced Video Codec
Профиль формата : High@L4.0
Параметр CABAC формата : Да
Параметр ReFrames формата : 1 кадр
Идентификатор кодека : avc1
Идентификатор кодека/Информация : Advanced Video Coding
Продолжительность : 1 ч. 13 м.
Битрейт : 3445 Кбит/сек
Максимальный битрейт : 11,6 Мбит/сек
Ширина : 1920 пикселей
Высота : 1080 пикселей
Соотношение сторон : 16:9
Режим частоты кадров : Постоянный
Частота кадров : 25,000 кадров/сек
Цветовое пространство : YUV
Субдискретизация насыщенности : 4:2:0
Битовая глубина : 8 бит
Тип развёртки : Прогрессивная
Бит/(Пиксели*Кадры) : 0.066
Размер потока : 1,76 Гбайт (95%)
Дата пометки : UTC 2013-06-06 08:44:50

Аудио
Идентификатор : 2
Формат : AAC
Формат/Информация : Advanced Audio Codec
Профиль формата : LC
Идентификатор кодека : 40
Продолжительность : 1 ч. 13 м.
Вид битрейта : Переменный
Битрейт : 192 Кбит/сек
Максимальный битрейт : 201 Кбит/сек
Каналы : 2 канала
Расположение каналов : Front: L R
Частота : 44,1 КГц
Метод сжатия : С потерями
Размер потока : 101 Мбайт (5%)
Дата кодирования : UTC 2013-06-06 08:43:07



   Похожие торренты   Торрент   Размер 
В этой теме нет новых непрочитанных сообщений. Они сражались за Родину (1975) WEB-DLRip

25 | 6

2.76 ГБ

В этой теме нет новых непрочитанных сообщений. Они сражались за Родину (1975) DVDRip от Alekxandr48

72 | 9

1.37 ГБ

В этой теме нет новых непрочитанных сообщений. Они сражались за Родину (1975) HDTVRip от Scarabey

144 | 24

1.45 ГБ

В этой теме нет новых непрочитанных сообщений. Они сражались за Родину (1975) HDTVRip от Scarabey

75 | 9

2.18 ГБ

В этой теме нет новых непрочитанных сообщений. Они сражались за Родину (1975) DVD9 by гаврила

3 | 5

7.68 ГБ

В этой теме нет новых непрочитанных сообщений. Они сражались за Родину (1975) BDRemux 1080p

28 | 18

28.97 ГБ

В этой теме нет новых непрочитанных сообщений. Они сражались за Родину (1975) BDRip от HQ-ViDEO

601 | 37

2.91 ГБ




Вы не можете начинать темы
Вы не можете отвечать на сообщения
Вы не можете редактировать свои сообщения
Вы не можете удалять свои сообщения
Вы не можете добавлять вложения

Перейти:  
Для Мосгорсуда, Роскомнадзора и рекламодателей: mosgorsud-torrent[собачка]yandex.ru
 Вход
ppkBB3cker v.2 © 2008-2014 @ PPK
[ Time : 0.015s | 17 Queries | GZIP : Off ]

Торрент трекер RUTOR.IN, Не можете зайти на rutor.org? Какой новый адрес рутор? Какое зеркало рутор? Не работает rutor.org и зеркала? Тогда наш торрент специально для вас. Rutor.in неофициальное зеркало rutor. В случае если у Вас заблокирован rutor или вдруг Вы не можете на него зайти, то Вы без труда сможете скачать бесплатно и без рекламы последние новинки кино, игр, сериалов и прочего у нас, на Rutor.in. Не нужно использовать прокси, чтобы зайти на рутор, достаточно воспользоваться нашим ресурсом. Все новые фильмы, игры, сериалы, книги и музыка за 2013 и 2014 годы через торрент бесплатно. Скачивайте фильмы в хорошем качестве, игры для пк, xbox, playstation без регистрации. У нас вы найдете новые Зарубежные сериалы и Русские сериалы 2013, 2014, 2015 годов. Оставайтесь с нами, качайте любимые фильмы, игры, сериалы, книги и музыку.