img image001 image001 image001 image001 image001 image001 image001 image001 image001 image001 image001 image001 image001 image001 image001

Planets Sun Sun Sun
Статистика раздачи
Автор: Снежана | Размер: 1.46 ГБ | Добавлен: 24 июл 2013
Раздают: 18    Качают: 4
Скачать торрент
Скачать торрент
Описание торрента

СообщениеДобавлено: 24 июл 2013 

#77
Страна: СССР
Производство: Студия Горького
Жанр: фэнтези, семейный
Год выпуска: 1972
Продолжительность: 01:09:56

Перевод: не требуется
Оригинальная аудиодорожка: русский
Cубтитры: русский, англиский

Режиссер: Александр Роу

В ролях:
Вера Алтайская, Анатолий Горбачев, Юрий Харченко, Александр Хвыля, Маргарита Корабельникова, Савелий Крамаров, Георгий Милляр, Лев Потемкин, Михаил Пуговкин, Раиса Рязанова...

Описание:
Было это давным-предавно. В стороне нашей светлой лесной жил Олень — Золотые рога. Малых, слабых всегда защищал, а вот зла никому не прощал… Но однажды в рассветном часу объявились злодеи в лесу.
Злодейка Баба-Яга утащила и заколдовала двух маленьких девочек. Их мать отправляется на поиски. Сказочный олень Золотые Рога дарит ей волшебный перстень, который поможет в дальнем и опасном пути…





Исходник: DVD9 R5
Тип релиза: DVDRip-AVC
Контейнер: MKV

Видео: 720->1024x472 (2.16:1), 25 fps, H264 ~ 2086 kbps avg, 0.246 bit/pixel
Аудио: 48 kHz, Dolby AC3 5.1, 448 kbps Русский
Аудио: 48 kHz, Dolby AC3 5.1, 448 kbps Английский
Формат субтитров: SoftSub (srt)

Раздача от:
Общее
Полное имя : Zolotye.roga.1972.DVDRip-AVC_[Youtracker]_by_AVP Studio.mkv
Формат : Matroska
Версия формата : Version 4 / Version 2
Размер файла : 1,46 Гбайт
Продолжительность : 1 ч. 9 м.
Общий поток : 2984 Кбит/сек
Название фильма : Zolotye.roga.1972.DVDRip-AVC_[Youtracker]_by_AVP Studio
Дата кодирования : UTC 2013-07-14 15:57:15
Программа кодирования : mkvmerge v6.3.0 ('You can't stop me!') built on Jun 27 2013 22:06:07
Библиотека кодирования : libebml v1.3.0 + libmatroska v1.4.0

Видео
Идентификатор : 1
Формат : AVC
Формат/Информация : Advanced Video Codec
Профиль формата : High@L4.1
Параметр CABAC формата : Да
Параметр ReFrames формата : 11 кадров
Идентификатор кодека : V_MPEG4/ISO/AVC
Продолжительность : 1 ч. 9 м.
Битрейт : 2086 Кбит/сек
Ширина : 720 пикселей
Высота : 472 пикселя
Соотношение сторон : 2,2:1
Частота кадров : 25,000 кадров/сек
Цветовое пространство : YUV
Субдискретизация насыщенности : 4:2:0
Битовая глубина : 8 бит
Тип развёртки : Прогрессивная
Бит/(Пиксели*Кадры) : 0.246
Размер потока : 1014 Мбайт (68%)
Заголовок : Источник DVD
Библиотека кодирования : x264 core 130 r2273 b3065e6
Настройки программы : cabac=1 / ref=11 / deblock=1:-2:-1 / analyse=0x3:0x113 / me=umh / subme=9 / psy=1 / psy_rd=1.00:0.20 / mixed_ref=1 / me_range=32 / chroma_me=1 / trellis=1 / 8x8dct=1 / cqm=0 / deadzone=21,11 / fast_pskip=0 / chroma_qp_offset=-3 / threads=3 / lookahead_threads=1 / sliced_threads=0 / nr=0 / decimate=0 / interlaced=0 / bluray_compat=0 / constrained_intra=0 / bframes=8 / b_pyramid=2 / b_adapt=2 / b_bias=0 / direct=3 / weightb=1 / open_gop=0 / weightp=2 / keyint=250 / keyint_min=25 / scenecut=40 / intra_refresh=0 / rc_lookahead=60 / rc=2pass / mbtree=1 / bitrate=2086 / ratetol=1.0 / qcomp=0.60 / qpmin=0 / qpmax=69 / qpstep=4 / cplxblur=20.0 / qblur=0.5 / ip_ratio=1.40 / aq=1:1.00
Язык : Russian
Default : Да
Forced : Нет

Аудио #1
Идентификатор : 2
Формат : AC-3
Формат/Информация : Audio Coding 3
Расширение режима : CM (complete main)
Идентификатор кодека : A_AC3
Продолжительность : 1 ч. 9 м.
Вид битрейта : Постоянный
Битрейт : 448 Кбит/сек
Каналы : 6 каналов
Расположение каналов : Front: L C R, Side: L R, LFE
Частота : 48,0 КГц
Битовая глубина : 16 бит
Метод сжатия : С потерями
Размер потока : 224 Мбайт (15%)
Заголовок : Источник DVD Dolby Digital 5,1
Язык : Russian
Default : Да
Forced : Нет

Аудио #2
Идентификатор : 3
Формат : AC-3
Формат/Информация : Audio Coding 3
Расширение режима : CM (complete main)
Идентификатор кодека : A_AC3
Продолжительность : 1 ч. 9 м.
Вид битрейта : Постоянный
Битрейт : 448 Кбит/сек
Каналы : 6 каналов
Расположение каналов : Front: L C R, Side: L R, LFE
Частота : 48,0 КГц
Битовая глубина : 16 бит
Метод сжатия : С потерями
Задержка видео : 80 мс.
Размер потока : 224 Мбайт (15%)
Заголовок : Источник DVD Dolby Digital 5,1
Язык : English
Default : Нет
Forced : Нет

Текст #1
Идентификатор : 4
Формат : UTF-8
Идентификатор кодека : S_TEXT/UTF8
Идентификатор кодека/Информация : UTF-8 Plain Text
Заголовок : Источник DVD SoftSub (srt)
Язык : Russian
Default : Нет
Forced : Нет

Текст #2
Идентификатор : 5
Формат : UTF-8
Идентификатор кодека : S_TEXT/UTF8
Идентификатор кодека/Информация : UTF-8 Plain Text
Заголовок : Источник DVD SoftSub (srt)
Язык : English
Default : Нет
Forced : Нет

Меню
00:00:00.000 : ru:00:00:00.000000000
00:05:00.000 : :00:05:00.000000000
00:10:00.000 : :00:10:00.000000000
00:15:00.000 : :00:15:00.000000000
00:20:00.000 : :00:20:00.000000000
00:25:00.000 : :00:25:00.000000000
00:30:00.000 : :00:30:00.000000000
00:35:00.000 : :00:35:00.000000000
00:40:00.000 : :00:40:00.000000000
00:45:00.000 : :00:45:00.000000000
00:50:00.000 : :00:50:00.000000000
00:55:00.000 : :00:55:00.000000000
01:00:00.000 : :01:00:00.000000000
01:05:00.000 : :01:05:00.000000000





   Похожие торренты   Торрент   Размер 
В этой теме нет новых непрочитанных сообщений. Золотые рога (1972) DVDRip от Youtracker

66 | 7

1.46 ГБ

В этой теме нет новых непрочитанных сообщений. Золотые рога (1972) DVDRip от Youtracker

20 | 3

743.99 МБ

В этой теме нет новых непрочитанных сообщений. Золотые рога (1972) DVDRip-AVC

0 | 0

3.12 ГБ

В этой теме нет новых непрочитанных сообщений. Золотые рога (1972) DVDRip

39 | 11

1.37 ГБ

В этой теме нет новых непрочитанных сообщений. Золотые рога (1972) DVD5 | Реставрация

3 | 6

4.32 ГБ

В этой теме нет новых непрочитанных сообщений. Сказки Александра Роу: Варвара-краса, длинная коса; Золотые рога; Огонь, вода и ... медные трубы (1968-1972) DVD5

83 | 21

4.17 ГБ

В этой теме нет новых непрочитанных сообщений. Схватка (1972) DVDRip от Youtracker

14 | 4

1.46 ГБ




Вы не можете начинать темы
Вы не можете отвечать на сообщения
Вы не можете редактировать свои сообщения
Вы не можете удалять свои сообщения
Вы не можете добавлять вложения

Перейти:  
Для Мосгорсуда, Роскомнадзора и рекламодателей: mosgorsud-torrent[собачка]yandex.ru
 Вход
ppkBB3cker v.2 © 2008-2014 @ PPK
[ Time : 0.029s | 14 Queries | GZIP : Off ]
CGP output time : 0.022s | 5 Queries | GZIP : Off

Торрент трекер RUTOR.IN, Не можете зайти на rutor.org? Какой новый адрес рутор? Какое зеркало рутор? Не работает rutor.org и зеркала? Тогда наш торрент специально для вас. Rutor.in неофициальное зеркало rutor. В случае если у Вас заблокирован rutor или вдруг Вы не можете на него зайти, то Вы без труда сможете скачать бесплатно и без рекламы последние новинки кино, игр, сериалов и прочего у нас, на Rutor.in. Не нужно использовать прокси, чтобы зайти на рутор, достаточно воспользоваться нашим ресурсом. Все новые фильмы, игры, сериалы, книги и музыка за 2013 и 2014 годы через торрент бесплатно. Скачивайте фильмы в хорошем качестве, игры для пк, xbox, playstation без регистрации. У нас вы найдете новые Зарубежные сериалы и Русские сериалы 2013, 2014, 2015 годов. Оставайтесь с нами, качайте любимые фильмы, игры, сериалы, книги и музыку.