img image001 image001 image001 image001 image001 image001 image001 image001 image001 image001 image001 image001 image001 image001 image001

Planets Sun Sun Sun
Статистика раздачи
Автор: Снежана | Размер: 1.46 ГБ | Добавлен: 24 июл 2013
Раздают: 66    Качают: 7
Скачать торрент
Скачать торрент
Описание торрента

СообщениеДобавлено: 24 июл 2013 

#77
Страна: СССР
Производство: Студия Горького
Жанр: фэнтези, семейный
Год выпуска: 1972
Продолжительность: 01:09:56

Перевод: не требуется
Оригинальная аудиодорожка: русский
Cубтитры: русский, англиский

Режиссер: Александр Роу

В ролях:
Вера Алтайская, Анатолий Горбачев, Юрий Харченко, Александр Хвыля, Маргарита Корабельникова, Савелий Крамаров, Георгий Милляр, Лев Потемкин, Михаил Пуговкин, Раиса Рязанова...

Описание:
Было это давным-предавно. В стороне нашей светлой лесной жил Олень — Золотые рога. Малых, слабых всегда защищал, а вот зла никому не прощал… Но однажды в рассветном часу объявились злодеи в лесу.
Злодейка Баба-Яга утащила и заколдовала двух маленьких девочек. Их мать отправляется на поиски. Сказочный олень Золотые Рога дарит ей волшебный перстень, который поможет в дальнем и опасном пути…





Исходник: DVD9 R5
Тип релиза: DVDRip
Контейнер: AVI

Видео: 720x336 (2.2:1), 25 fps, XviD ~ 2077 kbps avg, 0.343 bit/pixel
Аудио: 48 kHz, Dolby AC3 5.1, 448 kbps Русский
Аудио: 48 kHz, Dolby AC3 5.1, 448 kbps Английский
Формат субтитров: SoftSub (srt)

Раздача от:
Общее
Полное имя : Zolotye.roga.1972.DVDRip_[Youtracker]_by_AVP Studio.avi
Формат : AVI
Формат/Информация : Audio Video Interleave
Размер файла : 1,46 Гбайт
Продолжительность : 1 ч. 9 м.
Общий поток : 2987 Кбит/сек
Программа кодирования : VirtualDubModRus 1.5.10.2 (build 2542/release)
Библиотека кодирования : VirtualDubMod build 2542/release

Видео
Идентификатор : 0
Формат : MPEG-4 Visual
Профиль формата : Advanced Simple@L5
Параметр BVOP формата : 1
Параметр QPel формата : Нет
Параметр GMC формата : Без точки перехода
Параметр матрицы формата : Выборочная
Идентификатор кодека : XVID
Идентификатор кодека/Подсказка : XviD
Продолжительность : 1 ч. 9 м.
Битрейт : 2077 Кбит/сек
Ширина : 720 пикселей
Высота : 336 пикселей
Соотношение сторон : 2,2:1
Частота кадров : 25,000 кадров/сек
Цветовое пространство : YUV
Субдискретизация насыщенности : 4:2:0
Битовая глубина : 8 бит
Тип развёртки : Прогрессивная
Метод сжатия : С потерями
Бит/(Пиксели*Кадры) : 0.343
Размер потока : 1,01 Гбайт (70%)
Библиотека кодирования : XviD 65

Аудио #1
Идентификатор : 1
Формат : AC-3
Формат/Информация : Audio Coding 3
Расширение режима : CM (complete main)
Идентификатор кодека : 2000
Продолжительность : 1 ч. 9 м.
Вид битрейта : Постоянный
Битрейт : 448 Кбит/сек
Каналы : 6 каналов
Расположение каналов : Front: L C R, Side: L R, LFE
Частота : 48,0 КГц
Битовая глубина : 16 бит
Метод сжатия : С потерями
Размер потока : 224 Мбайт (15%)
Выравнивание : Разделение по промежуткам
Продолжительность промежутка : 40 мс. (1,00 видеокадр)
Время предзагрузки промежутка : 500 мс.

Аудио #2
Идентификатор : 2
Формат : AC-3
Формат/Информация : Audio Coding 3
Расширение режима : CM (complete main)
Идентификатор кодека : 2000
Продолжительность : 1 ч. 9 м.
Вид битрейта : Постоянный
Битрейт : 448 Кбит/сек
Каналы : 6 каналов
Расположение каналов : Front: L C R, Side: L R, LFE
Частота : 48,0 КГц
Битовая глубина : 16 бит
Метод сжатия : С потерями
Размер потока : 224 Мбайт (15%)
Выравнивание : Разделение по промежуткам
Продолжительность промежутка : 40 мс. (1,00 видеокадр)
Время предзагрузки промежутка : 500 мс





   Похожие торренты   Торрент   Размер 
В этой теме нет новых непрочитанных сообщений. Золотые рога (1972) DVDRip от Youtracker

20 | 3

743.99 МБ

В этой теме нет новых непрочитанных сообщений. Золотые рога (1972) DVDRip-AVC от Youtracker

18 | 4

1.46 ГБ

В этой теме нет новых непрочитанных сообщений. Золотые рога (1972) DVDRip-AVC

19 | 2

3.12 ГБ

В этой теме нет новых непрочитанных сообщений. Золотые рога (1972) DVDRip

39 | 11

1.37 ГБ

В этой теме нет новых непрочитанных сообщений. Золотые рога (1972) DVD5 | Реставрация

3 | 6

4.32 ГБ

В этой теме нет новых непрочитанных сообщений. Сказки Александра Роу: Варвара-краса, длинная коса; Золотые рога; Огонь, вода и ... медные трубы (1968-1972) DVD5

83 | 21

4.17 ГБ

В этой теме нет новых непрочитанных сообщений. Схватка (1972) DVDRip от Youtracker

14 | 4

1.46 ГБ




Вы не можете начинать темы
Вы не можете отвечать на сообщения
Вы не можете редактировать свои сообщения
Вы не можете удалять свои сообщения
Вы не можете добавлять вложения

Перейти:  
Для Мосгорсуда, Роскомнадзора и рекламодателей: mosgorsud-torrent[собачка]yandex.ru
 Вход
ppkBB3cker v.2 © 2008-2014 @ PPK
[ Time : 0.040s | 15 Queries | GZIP : Off ]

cron