img image001 image001 image001 image001 image001 image001 image001 image001 image001 image001 image001 image001 image001 image001 image001

Planets Sun Sun Sun
Статистика раздачи
Автор: Снежана | Размер: 1.43 ГБ | Добавлен: 24 июл 2013
Раздают: 30    Качают: 7
Скачать торрент
Скачать торрент
Описание торрента

СообщениеДобавлено: 24 июл 2013 

#77
Страна: СССР
Производство: Мосфильм
Жанр: комедия, семейный
Год выпуска: 1972
Продолжительность: 01:18:49

Перевод: не требуется
Оригинальная аудиодорожка: русский
Cубтитры: нет

Режиссер: Александр Митта

В ролях:
Сережа Данченко, Миша Козловский, Оля Рыжникова, Юрий Никулин, Заза Киквидзе, Марина Щербова, Люда Сухова, Андрей Васильев, Евгений Перов, Евгений Герасимов, Жанна Прохоренко, Татьяна Никулина, Наталья Селезнева, К.Страчук, Владимир Заманский...

Описание:
История о смешном и нелепом мальчишке-семикласснике, которого, кажется, никто не воспринимает всерьез: ни учителя, ни ровесники. Но вот однажды в его классе появляется новенькая, с которой ему удается подружиться…





Исходник: DVD5 R5
Тип релиза: DVDRip
Контейнер: AVI

Видео: 720x336 (2.2:1), 25 fps, XviD ~ 2400 kbps avg, 0.397 bit/pixel
Аудио: 48 kHz, Dolby AC3 2.0, 192 kbps

Раздача от:
Общее
Полное имя : Tochka,tochka,zapyataya.1972.DVDRip_[Youtracker]_by_AVP Studio.avi
Формат : AVI
Формат/Информация : Audio Video Interleave
Размер файла : 1,43 Гбайт
Продолжительность : 1 ч. 18 м.
Общий поток : 2602 Кбит/сек
Программа кодирования : VirtualDubModRus 1.5.10.2 (build 2542/release)
Библиотека кодирования : VirtualDubMod build 2542/release

Видео
Идентификатор : 0
Формат : MPEG-4 Visual
Профиль формата : Advanced Simple@L5
Параметр BVOP формата : 1
Параметр QPel формата : Нет
Параметр GMC формата : Без точки перехода
Параметр матрицы формата : Выборочная
Идентификатор кодека : XVID
Идентификатор кодека/Подсказка : XviD
Продолжительность : 1 ч. 18 м.
Битрейт : 2400 Кбит/сек
Ширина : 720 пикселей
Высота : 336 пикселей
Соотношение сторон : 2,2:1
Частота кадров : 25,000 кадров/сек
Цветовое пространство : YUV
Субдискретизация насыщенности : 4:2:0
Битовая глубина : 8 бит
Тип развёртки : Прогрессивная
Метод сжатия : С потерями
Бит/(Пиксели*Кадры) : 0.397
Размер потока : 1,32 Гбайт (92%)
Библиотека кодирования : XviD 65

Аудио
Идентификатор : 1
Формат : AC-3
Формат/Информация : Audio Coding 3
Расширение режима : CM (complete main)
Идентификатор кодека : 2000
Продолжительность : 1 ч. 18 м.
Вид битрейта : Постоянный
Битрейт : 192 Кбит/сек
Каналы : 2 канала
Расположение каналов : Front: L R
Частота : 48,0 КГц
Битовая глубина : 16 бит
Метод сжатия : С потерями
Размер потока : 108 Мбайт (7%)
Выравнивание : Разделение по промежуткам
Продолжительность промежутка : 40 мс. (1,00 видеокадр)
Время предзагрузки промежутка : 500 мс





   Похожие торренты   Торрент   Размер 
В этой теме нет новых непрочитанных сообщений. Точка, точка, запятая... (1972) DVDRip-AVC от Youtracker

2 | 2

744.04 МБ

В этой теме нет новых непрочитанных сообщений. Точка, точка, запятая... (1972) DVDRip от Youtracker

9 | 16

745 МБ

В этой теме нет новых непрочитанных сообщений. Точка, точка, запятая... (1972) DVDRip

486 | 26

1.09 ГБ

В этой теме нет новых непрочитанных сообщений. Точка (2006) DVDRip

18 | 2

937.56 МБ

В этой теме нет новых непрочитанных сообщений. Точка (2006) DVDRip

536 | 32

1.37 ГБ

В этой теме нет новых непрочитанных сообщений. Точка R / R-Point (2004) DVDRip

13 | 2

746.12 МБ

В этой теме нет новых непрочитанных сообщений. Точка взрыва [01-04 из 04] (2013) DVDRip

2 | 3

1.95 ГБ




Вы не можете начинать темы
Вы не можете отвечать на сообщения
Вы не можете редактировать свои сообщения
Вы не можете удалять свои сообщения
Вы не можете добавлять вложения

Перейти:  
Для Мосгорсуда, Роскомнадзора и рекламодателей: mosgorsud-torrent[собачка]yandex.ru
 Вход
ppkBB3cker v.2 © 2008-2014 @ PPK
[ Time : 0.042s | 17 Queries | GZIP : Off ]

cron