img image001 image001 image001 image001 image001 image001 image001 image001 image001 image001 image001 image001 image001 image001 image001

Planets Sun Sun Sun
Статистика раздачи
Автор: Снежана | Размер: 1.46 ГБ | Добавлен: 24 июл 2013
Раздают: 2    Качают: 3
Скачать торрент
Скачать торрент
Описание торрента

СообщениеДобавлено: 24 июл 2013 

«Памяти советских, английских и американских моряков, погибших в июле 1942 года в конвое PQ-17»



#77
Страна: СССР
Производство: Студия Довженко
Жанр: драма, военный
Год выпуска: 1972
Продолжительность: 01:25:48

Перевод: не требуется
Оригинальная аудиодорожка: русский
Cубтитры: нет

Режиссер: Владимир Довгань

В ролях:
Ольга Матешко, Александр Лазарев (старший), Валерий Бабятинский, Константин Параконьев, Валерий Ольшанский, Алексей Чернов, Евгений Коваленко, Юрий Комаров, Борислав Брондуков, Алексей Кожевников, Виктор Жовтый, Сергей Зинченко, Алексей Чумак, Юрий Сдобников...

Описание:
Июнь 1942 года. Из Исландии в Мурманск отправляются транспортные корабли с военными грузами — помощью союзников воюющей России. Охрана их поручена британским военно-морским силам. Но когда гитлеровские подводные лодки и авиация напали на караван, английские корабли, выполняя приказ своего командования, не вступили в бой, бросили транспорт без охраны в открытом море. В жестоком бою погибло 23 корабля с ценнейшими грузами…





Исходник: DVD5 R5
Тип релиза: DVDRip
Контейнер: AVI

Видео: 688x288 (2.35:1), 25 fps, XviD ~ 2165 kbps avg, 0.437 bit/pixel
Аудио: 48 kHz, Dolby AC3 2.0, 256 kbps

Раздача от:
Общее
Полное имя : Semnadcatyi.transatlanticheskiy.1972.DVDRip_[Youtracker]_by_AVP Studio.avi
Формат : AVI
Формат/Информация : Audio Video Interleave
Размер файла : 1,46 Гбайт
Продолжительность : 1 ч. 25 м.
Общий поток : 2431 Кбит/сек
Программа кодирования : VirtualDubModRus 1.5.10.2 (build 2542/release)
Библиотека кодирования : VirtualDubMod build 2542/release

Видео
Идентификатор : 0
Формат : MPEG-4 Visual
Профиль формата : Advanced Simple@L5
Параметр BVOP формата : 1
Параметр QPel формата : Нет
Параметр GMC формата : Без точки перехода
Параметр матрицы формата : Выборочная
Идентификатор кодека : XVID
Идентификатор кодека/Подсказка : XviD
Продолжительность : 1 ч. 25 м.
Битрейт : 2165 Кбит/сек
Ширина : 688 пикселей
Высота : 288 пикселей
Соотношение сторон : 2,40:1
Частота кадров : 25,000 кадров/сек
Цветовое пространство : YUV
Субдискретизация насыщенности : 4:2:0
Битовая глубина : 8 бит
Тип развёртки : Прогрессивная
Метод сжатия : С потерями
Бит/(Пиксели*Кадры) : 0.437
Размер потока : 1,30 Гбайт (89%)
Библиотека кодирования : XviD 65

Аудио
Идентификатор : 1
Формат : AC-3
Формат/Информация : Audio Coding 3
Расширение режима : CM (complete main)
Идентификатор кодека : 2000
Продолжительность : 1 ч. 25 м.
Вид битрейта : Постоянный
Битрейт : 256 Кбит/сек
Каналы : 2 канала
Расположение каналов : Front: L R
Частота : 48,0 КГц
Битовая глубина : 16 бит
Метод сжатия : С потерями
Размер потока : 157 Мбайт (11%)
Выравнивание : Разделение по промежуткам
Продолжительность промежутка : 40 мс. (1,00 видеокадр)
Время предзагрузки промежутка : 500 мс





   Похожие торренты   Торрент   Размер 
В этой теме нет новых непрочитанных сообщений. Семнадцатый трансатлантический (1972) DVDRip-AVC от Youtracker

0 | 11

743.76 МБ

В этой теме нет новых непрочитанных сообщений. Семнадцатый трансатлантический (1972) DVDRip от Youtracker

3 | 19

744.85 МБ

В этой теме нет новых непрочитанных сообщений. Схватка (1972) DVDRip от Youtracker

14 | 4

1.46 ГБ

В этой теме нет новых непрочитанных сообщений. Бой после победы (1972) DVDRip от Youtracker

25 | 8

1.46 ГБ

В этой теме нет новых непрочитанных сообщений. Руслан и Людмила (1972) DVDRip от Youtracker

149 | 22

1.46 ГБ

В этой теме нет новых непрочитанных сообщений. Руслан и Людмила (1972) DVDRip-AVC от Youtracker

70 | 15

2.18 ГБ

В этой теме нет новых непрочитанных сообщений. Золотые рога (1972) DVDRip от Youtracker

66 | 7

1.46 ГБ




Вы не можете начинать темы
Вы не можете отвечать на сообщения
Вы не можете редактировать свои сообщения
Вы не можете удалять свои сообщения
Вы не можете добавлять вложения

Перейти:  
Для Мосгорсуда, Роскомнадзора и рекламодателей: mosgorsud-torrent[собачка]yandex.ru
 Вход
ppkBB3cker v.2 © 2008-2014 @ PPK
[ Time : 0.031s | 14 Queries | GZIP : Off ]

Торрент трекер RUTOR.IN, Не можете зайти на rutor.org? Какой новый адрес рутор? Какое зеркало рутор? Не работает rutor.org и зеркала? Тогда наш торрент специально для вас. Rutor.in неофициальное зеркало rutor. В случае если у Вас заблокирован rutor или вдруг Вы не можете на него зайти, то Вы без труда сможете скачать бесплатно и без рекламы последние новинки кино, игр, сериалов и прочего у нас, на Rutor.in. Не нужно использовать прокси, чтобы зайти на рутор, достаточно воспользоваться нашим ресурсом. Все новые фильмы, игры, сериалы, книги и музыка за 2013 и 2014 годы через торрент бесплатно. Скачивайте фильмы в хорошем качестве, игры для пк, xbox, playstation без регистрации. У нас вы найдете новые Зарубежные сериалы и Русские сериалы 2013, 2014, 2015 годов. Оставайтесь с нами, качайте любимые фильмы, игры, сериалы, книги и музыку.