img image001 image001 image001 image001 image001 image001 image001 image001 image001 image001 image001 image001 image001 image001 image001

Planets Sun Sun Sun
Статистика раздачи
Автор: Снежана | Размер: 744.72 МБ | Добавлен: 24 июл 2013
Раздают: 7    Качают: 4
Скачать торрент
Скачать торрент
Описание торрента

СообщениеДобавлено: 24 июл 2013 

#77
Страна: СССР, Куба
Производство: Ленфильм
Жанр: мелодрама, приключения, вестерн
Год выпуска: 1973
Продолжительность: 01:34:35

Перевод: не требуется
Оригинальная аудиодорожка: русский
Cубтитры: нет

Режиссер: Владимир Вайншток

В ролях:
Людмила Савельева, Олег Видов, Алехандро Луго, Эслинда Нуньес, Александр Милокостый, Иван Петров, Аарне Юкскюла, Энрике Сантиэстебан, Платон Лесли, Роландо Диас Рейес, Альфонсо Годинес, Виктор Беловольский, В.Веселкин, А.Владимиров...

Роли дублировали: Александр Белявский, Даниил Нетребин, Феликс Яворский, Алексей Золотницкий, Алексей Консовский

Описание:
В середине XIX века, после кровопролитной войны с Мексикой, американцы начали покорение огромной территории Техаса. У нового владельца гасиенды Каса-дель-Корво дела идут далеко не блестяще. К тому же происходит страшное событие: бесследно исчезает его сын.
Подозрение в убийстве падает на молодого мустангера Мориса Джеральда, в которого влюблена дочь хозяина. Когда кажется, что казнь неминуема, внезапно появляется главный свидетель преступления…





Исходник: DVD5 R5
Тип релиза: DVDRip
Контейнер: AVI

Видео: 720x304 (2.35:1), 25 fps, XviD ~ 963 kbps avg, 0.176 bit/pixel
Аудио: 48 kHz, MP3 2.0, 128 kbps

Раздача от:
Общее
Полное имя : Vsadnik.bez.golovy.1973.DVDRip-745_[Youtracker]_by_AVP Studio.avi
Формат : AVI
Формат/Информация : Audio Video Interleave
Размер файла : 745 Мбайт
Продолжительность : 1 ч. 34 м.
Общий поток : 1101 Кбит/сек
Программа кодирования : VirtualDubModRus 1.5.10.2 (build 2542/release)
Библиотека кодирования : VirtualDubMod build 2542/release

Видео
Идентификатор : 0
Формат : MPEG-4 Visual
Профиль формата : Advanced Simple@L5
Параметр BVOP формата : 1
Параметр QPel формата : Нет
Параметр GMC формата : Без точки перехода
Параметр матрицы формата : Выборочная
Идентификатор кодека : XVID
Идентификатор кодека/Подсказка : XviD
Продолжительность : 1 ч. 34 м.
Битрейт : 963 Кбит/сек
Ширина : 720 пикселей
Высота : 304 пикселя
Соотношение сторон : 2,35:1
Частота кадров : 25,000 кадров/сек
Цветовое пространство : YUV
Субдискретизация насыщенности : 4:2:0
Битовая глубина : 8 бит
Тип развёртки : Прогрессивная
Метод сжатия : С потерями
Бит/(Пиксели*Кадры) : 0.176
Размер потока : 652 Мбайт (87%)
Библиотека кодирования : XviD 65

Аудио
Идентификатор : 1
Формат : MPEG Audio
Версия формата : Version 1
Профиль формата : Layer 3
Идентификатор кодека : 55
Идентификатор кодека/Подсказка : MP3
Продолжительность : 1 ч. 34 м.
Вид битрейта : Постоянный
Битрейт : 128 Кбит/сек
Каналы : 2 канала
Частота : 48,0 КГц
Метод сжатия : С потерями
Размер потока : 86,6 Мбайт (12%)
Выравнивание : Соединение по промежуткам
Продолжительность промежутка : 40 мс. (1,00 видеокадр)
Время предзагрузки промежутка : 504 мс.
Библиотека кодирования : L3.99r
Настройки программы : -m s -V 4 -q 2 -lowpass 17 -b 128





   Похожие торренты   Торрент   Размер 
В этой теме нет новых непрочитанных сообщений. Всадник без головы (1973) DVDRip от Youtracker

52 | 9

1.46 ГБ

В этой теме нет новых непрочитанных сообщений. Всадник без головы (1973) DVDRip-AVC от Youtracker

45 | 8

1.46 ГБ

В этой теме нет новых непрочитанных сообщений. Всадник без головы (1973) DVDRip от MediaClub

177 | 13

1.37 ГБ

В этой теме нет новых непрочитанных сообщений. Всадник без головы (1973) DVDRip by гаврила

118 | 11

699.89 МБ

В этой теме нет новых непрочитанных сообщений. Всадник без головы (1973) DVD5 by гаврила

6 | 3

3.9 ГБ

В этой теме нет новых непрочитанных сообщений. Всадник без головы / Headless Horseman (2007) DVDRip

43 | 14

688.04 МБ

В этой теме нет новых непрочитанных сообщений. Майн Рид - Всадник без головы (2005) МР3

76 | 3

198.54 МБ




Вы не можете начинать темы
Вы не можете отвечать на сообщения
Вы не можете редактировать свои сообщения
Вы не можете удалять свои сообщения
Вы не можете добавлять вложения

Перейти:  
Для Мосгорсуда, Роскомнадзора и рекламодателей: mosgorsud-torrent[собачка]yandex.ru
 Вход
ppkBB3cker v.2 © 2008-2014 @ PPK
[ Time : 0.012s | 14 Queries | GZIP : Off ]
CGP output time : 0.019s | 5 Queries | GZIP : Off

Торрент трекер RUTOR.IN, Не можете зайти на rutor.org? Какой новый адрес рутор? Какое зеркало рутор? Не работает rutor.org и зеркала? Тогда наш торрент специально для вас. Rutor.in неофициальное зеркало rutor. В случае если у Вас заблокирован rutor или вдруг Вы не можете на него зайти, то Вы без труда сможете скачать бесплатно и без рекламы последние новинки кино, игр, сериалов и прочего у нас, на Rutor.in. Не нужно использовать прокси, чтобы зайти на рутор, достаточно воспользоваться нашим ресурсом. Все новые фильмы, игры, сериалы, книги и музыка за 2013 и 2014 годы через торрент бесплатно. Скачивайте фильмы в хорошем качестве, игры для пк, xbox, playstation без регистрации. У нас вы найдете новые Зарубежные сериалы и Русские сериалы 2013, 2014, 2015 годов. Оставайтесь с нами, качайте любимые фильмы, игры, сериалы, книги и музыку.