img image001 image001 image001 image001 image001 image001 image001 image001 image001 image001 image001 image001 image001 image001 image001

Planets Sun Sun Sun
Статистика раздачи
Автор: Снежана | Размер: 744.94 МБ | Добавлен: 25 июл 2013
Раздают: 3    Качают: 3
Скачать торрент
Скачать торрент
Описание торрента

СообщениеДобавлено: 25 июл 2013 

#77
Страна: СССР
Производство: Ленфильм
Жанр: криминал, детектив
Год выпуска: 1972
Продолжительность: 01:28:26

Перевод: не требуется
Оригинальная аудиодорожка: русский
Cубтитры: нет

Режиссер: Герберт Раппапорт

В ролях:
Александр Збруев, Игорь Горбачев, Петр Горин, Алексей Кожевников, Армен Джигарханян, Евгения Уралова, Светлана Коркошко, Николай Рыбников, Светлана Немоляева, Роман Громадский, Пантелеймон Крымов, Альгимантас Масюлис

Описание:
Капитан милиции Алешин ведет расследование дела, связанного с хищением опиума на складе химзавода. Все говорит о том, что преступника надо искать среди сотрудников предприятия. Один из работников — Фролов — знаком Алешину по другому делу.
И хотя Алешин уверен в честности Фролова, он подозревает неладное, видя, как тот что-то скрывает от него и сам мучается от этого. На даче директора завода Васильцева убивают его отчима, оказавшегося ненужным свидетелем. След выводит Алешина на сотрудницу завода некую Ольгу…





Исходник: DVB
Тип релиза: SATRip
Контейнер: AVI

Видео: 624x480 (1.300:1), 25 fps, XviD ~ 1040 kbps avg, 0.139 bit/pixel
Аудио: 48 kHz, MP3 2.0, 128 kbps

Раздача от:
Общее
Полное имя : Krug.1972.SATRip-745_[Youtracker]_by_AVP Studio.avi
Формат : AVI
Формат/Информация : Audio Video Interleave
Размер файла : 745 Мбайт
Продолжительность : 1 ч. 28 м.
Общий поток : 1178 Кбит/сек
Программа кодирования : VirtualDubModRus 1.5.10.2 (build 2542/release)
Библиотека кодирования : VirtualDubMod build 2542/release

Видео
Идентификатор : 0
Формат : MPEG-4 Visual
Профиль формата : Advanced Simple@L5
Параметр BVOP формата : 1
Параметр QPel формата : Нет
Параметр GMC формата : Без точки перехода
Параметр матрицы формата : Выборочная
Идентификатор кодека : XVID
Идентификатор кодека/Подсказка : XviD
Продолжительность : 1 ч. 28 м.
Битрейт : 1040 Кбит/сек
Ширина : 624 пикселя
Высота : 480 пикселей
Соотношение сторон : 1,300
Частота кадров : 25,000 кадров/сек
Цветовое пространство : YUV
Субдискретизация насыщенности : 4:2:0
Битовая глубина : 8 бит
Тип развёртки : Прогрессивная
Метод сжатия : С потерями
Бит/(Пиксели*Кадры) : 0.139
Размер потока : 658 Мбайт (88%)
Библиотека кодирования : XviD 65

Аудио
Идентификатор : 1
Формат : MPEG Audio
Версия формата : Version 1
Профиль формата : Layer 3
Идентификатор кодека : 55
Идентификатор кодека/Подсказка : MP3
Продолжительность : 1 ч. 28 м.
Вид битрейта : Постоянный
Битрейт : 128 Кбит/сек
Каналы : 2 канала
Частота : 48,0 КГц
Метод сжатия : С потерями
Размер потока : 81,0 Мбайт (11%)
Выравнивание : Соединение по промежуткам
Продолжительность промежутка : 40 мс. (1,00 видеокадр)
Время предзагрузки промежутка : 504 мс.
Библиотека кодирования : L3.99r
Настройки программы : -m s -V 4 -q 2 -lowpass 17 -b 128





   Похожие торренты   Торрент   Размер 
В этой теме нет новых непрочитанных сообщений. Круг (1972) SATRip от Youtracker

3 | 4

1.46 ГБ

В этой теме нет новых непрочитанных сообщений. Круг (1972) SATRip-AVC от Youtracker

12 | 7

1.46 ГБ

В этой теме нет новых непрочитанных сообщений. Пропажа свидетеля (1972) SATRip от Youtracker

369 | 23

1.46 ГБ

В этой теме нет новых непрочитанных сообщений. Пропажа свидетеля (1972) SATRip-AVC от Youtracker

22 | 10

743.92 МБ

В этой теме нет новых непрочитанных сообщений. Пропажа свидетеля (1972) SATRip от Youtracker

9 | 10

744.15 МБ

В этой теме нет новых непрочитанных сообщений. Дела давно минувших дней (1972) SATRip от Youtracker

19 | 9

745.25 МБ

В этой теме нет новых непрочитанных сообщений. Дела давно минувших дней (1972) SATRip от Youtracker

20 | 5

1.46 ГБ




Вы не можете начинать темы
Вы не можете отвечать на сообщения
Вы не можете редактировать свои сообщения
Вы не можете удалять свои сообщения
Вы не можете добавлять вложения

Перейти:  
Для Мосгорсуда, Роскомнадзора и рекламодателей: mosgorsud-torrent[собачка]yandex.ru
 Вход
ppkBB3cker v.2 © 2008-2014 @ PPK
[ Time : 0.212s | 14 Queries | GZIP : Off ]

Торрент трекер RUTOR.IN, Не можете зайти на rutor.org? Какой новый адрес рутор? Какое зеркало рутор? Не работает rutor.org и зеркала? Тогда наш торрент специально для вас. Rutor.in неофициальное зеркало rutor. В случае если у Вас заблокирован rutor или вдруг Вы не можете на него зайти, то Вы без труда сможете скачать бесплатно и без рекламы последние новинки кино, игр, сериалов и прочего у нас, на Rutor.in. Не нужно использовать прокси, чтобы зайти на рутор, достаточно воспользоваться нашим ресурсом. Все новые фильмы, игры, сериалы, книги и музыка за 2013 и 2014 годы через торрент бесплатно. Скачивайте фильмы в хорошем качестве, игры для пк, xbox, playstation без регистрации. У нас вы найдете новые Зарубежные сериалы и Русские сериалы 2013, 2014, 2015 годов. Оставайтесь с нами, качайте любимые фильмы, игры, сериалы, книги и музыку.