img image001 image001 image001 image001 image001 image001 image001 image001 image001 image001 image001 image001 image001 image001 image001

Planets Sun Sun Sun
Статистика раздачи
Автор: Снежана | Размер: 1.46 ГБ | Добавлен: 24 июл 2013
Раздают: 15    Качают: 2
Скачать торрент
Скачать торрент
Описание торрента

СообщениеДобавлено: 24 июл 2013 

#77
Страна: Россия
Студия: Cine Fantom
Жанр: драма
Год выпуска: 2012
Продолжительность: 01:42:20

Перевод: не требуется
Оригинальная аудиодорожка: русский
Cубтитры: нет

Режиссер: Светлана Баскова

В ролях: Сергей Пахомов, Владимир Епифанцев, Виктор Сергачев, Лаврентий Светличный, Денис Яковлев, Михаил Калинкин, Александр Ковалев

Описание: Фильм основан на событиях кризисного времени, когда владельцы производства пытаются решать свои проблемы за счет рабочих людей, обнищавших за последние годы. Главный конфликт внутри фильма между — новыми капиталистами и рабочим классом, вышедшем из советского времени. «Новыми русскими» и советскими рабочими.






Исходник: DVD5 R5
Качество: DVDRip
Формат: AVI

Видео: 720x384 (1.85:1), 25.000 fps, XViD ~ 1580 kbps avg, 0.229 bit/pixel
Аудио: 48 kHz, АС3 6 ch, 448 kbps, русский

Раздача от:
Общее
Полное имя : Za.Marksa.2012.O.DVDRip_[Youtracker]_by_avproh.avi
Формат : AVI
Формат/Информация : Audio Video Interleave
Размер файла : 1,46 Гбайт
Продолжительность : 1 ч. 42 м.
Общий поток : 2038 Кбит/сек
Программа кодирования : VirtualDubMod 1.5.10.3 | www.virtualdub-fr.org || (build 2550/release)
Библиотека кодирования : VirtualDubMod build 2550/release

Видео
Идентификатор : 0
Формат : MPEG-4 Visual
Профиль формата : Advanced Simple@L5
Параметр BVOP формата : 1
Параметр QPel формата : Нет
Параметр GMC формата : Без точки перехода
Параметр матрицы формата : Выборочная
Идентификатор кодека : XVID
Идентификатор кодека/Подсказка : XviD
Продолжительность : 1 ч. 42 м.
Битрейт : 1580 Кбит/сек
Ширина : 720 пикселей
Высота : 384 пикселя
Соотношение сторон : 1,85:1
Частота кадров : 25,000 кадров/сек
Цветовое пространство : YUV
Субдискретизация насыщенности : 4:2:0
Битовая глубина : 8 бит
Тип развёртки : Прогрессивная
Метод сжатия : С потерями
Бит/(Пиксели*Кадры) : 0.229
Размер потока : 1,13 Гбайт (78%)
Библиотека кодирования : XviD 65

Аудио
Идентификатор : 1
Формат : AC-3
Формат/Информация : Audio Coding 3
Расширение режима : CM (complete main)
Параметр Endianness формата : Big
Идентификатор кодека : 2000
Продолжительность : 1 ч. 42 м.
Вид битрейта : Постоянный
Битрейт : 448 Кбит/сек
Каналы : 6 каналов
Расположение каналов : Front: L C R, Side: L R, LFE
Частота : 48,0 КГц
Битовая глубина : 16 бит
Метод сжатия : С потерями
Размер потока : 328 Мбайт (22%)
Выравнивание : Разделение по промежуткам
Продолжительность промежутка : 40 мс. (1,00 видеокадр)
Время предзагрузки промежутка : 500 мс.






   Похожие торренты   Торрент   Размер 
В этой теме нет новых непрочитанных сообщений. За Маркса... (2012) DVDRip-AVC от Youtracker | лицензия

4 | 3

1.45 ГБ

В этой теме нет новых непрочитанных сообщений. За Маркса... (2012) DVDRip от Youtracker | лицензия

3 | 2

744.61 МБ

В этой теме нет новых непрочитанных сообщений. За Маркса... (2012) DVD5 R5 от Youtracker | лицензия

2 | 2

4.07 ГБ

В этой теме нет новых непрочитанных сообщений. За Маркса... (2012) DVDRip от Scarabey | Лицензия

26 | 5

745.34 МБ

В этой теме нет новых непрочитанных сообщений. За Маркса... (2012) DVDRip от Scarabey | Лицензия

73 | 3

1.45 ГБ

В этой теме нет новых непрочитанных сообщений. Под прикрытием [01-12 из 12] (2012) DVDRip от Youtracker | лицензия

82 | 17

9.39 ГБ

В этой теме нет новых непрочитанных сообщений. Инкассаторы [01-08 из 08] (2012) DVDRip-AVC от Youtracker | лицензия

7 | 9

6.32 ГБ




Вы не можете начинать темы
Вы не можете отвечать на сообщения
Вы не можете редактировать свои сообщения
Вы не можете удалять свои сообщения
Вы не можете добавлять вложения

Перейти:  
Для Мосгорсуда, Роскомнадзора и рекламодателей: mosgorsud-torrent[собачка]yandex.ru
 Вход
ppkBB3cker v.2 © 2008-2014 @ PPK
[ Time : 0.094s | 14 Queries | GZIP : Off ]

Торрент трекер RUTOR.IN, Не можете зайти на rutor.org? Какой новый адрес рутор? Какое зеркало рутор? Не работает rutor.org и зеркала? Тогда наш торрент специально для вас. Rutor.in неофициальное зеркало rutor. В случае если у Вас заблокирован rutor или вдруг Вы не можете на него зайти, то Вы без труда сможете скачать бесплатно и без рекламы последние новинки кино, игр, сериалов и прочего у нас, на Rutor.in. Не нужно использовать прокси, чтобы зайти на рутор, достаточно воспользоваться нашим ресурсом. Все новые фильмы, игры, сериалы, книги и музыка за 2013 и 2014 годы через торрент бесплатно. Скачивайте фильмы в хорошем качестве, игры для пк, xbox, playstation без регистрации. У нас вы найдете новые Зарубежные сериалы и Русские сериалы 2013, 2014, 2015 годов. Оставайтесь с нами, качайте любимые фильмы, игры, сериалы, книги и музыку.