img image001 image001 image001 image001 image001 image001 image001 image001 image001 image001 image001 image001 image001 image001 image001

Planets Sun Sun Sun
Статистика раздачи
Автор: Снежана | Размер: 1.46 ГБ | Добавлен: 24 июл 2013
Раздают: 149    Качают: 22
Скачать торрент
Скачать торрент
Описание торрента

СообщениеДобавлено: 24 июл 2013 

#77
Страна: СССР
Производство: Мосфильм
Жанр: фэнтези, сказка
Год выпуска: 1970
Продолжительность: 02:19:36 (01:13:02 + 01:06:34)

Перевод: не требуется
Оригинальная аудиодорожка: русский
Cубтитры: нет

Режиссер: Александр Птушко

В ролях:
Наталья Петрова, Валерий Козинец, Олег Мокшанцев, Руслан Ахметов, Вячеслав Невинный, Андрей Абрикосов, Владимир Федоров, Наталья Хренникова, Мария Капнист, Игорь Ясулович, Виктор Шульгин, Сергей Мартинсон, Ээве Киви, Шавкат Газиев, Николай Кутузов...

Описание:
Поставленный по мотивам знаменитой поэмы А. С. Пушкина, фильм погружает зрителя в мир волшебной сказки. Доблестный Руслан, отправившийся на поиски похищенной невесты, одолевает коварство, обман, злое колдовство — и, в конце концов, в жестоком бою побеждает Черномора…
Создатели картины сумели решить сложнейшую творческую задачу, передав экранными средствами самые тонкие нюансы гениального первоисточника, его дух, драматизм и поэтическую прелесть…





Исходник: DVD9 R5
Тип релиза: DVDRip
Контейнер: AVI

Видео: 688x528 (4:3), 25 fps, XviD ~ 1356 kbps avg, 0.149 bit/pixel
Аудио: 48 kHz, MP3 2.0, 128 kbps

Раздача от:
Общее
Полное имя : Ruslan.i.Ljudmila.1972.DVDRip-1.46_[Youtracker]_by_AVP Studio\01.avi
Формат : AVI
Формат/Информация : Audio Video Interleave
Размер файла : 780 Мбайт
Продолжительность : 1 ч. 13 м.
Общий поток : 1494 Кбит/сек
Программа кодирования : VirtualDubModRus 1.5.10.2 (build 2542/release)
Библиотека кодирования : VirtualDubMod build 2542/release

Видео
Идентификатор : 0
Формат : MPEG-4 Visual
Профиль формата : Advanced Simple@L5
Параметр BVOP формата : 1
Параметр QPel формата : Нет
Параметр GMC формата : Без точки перехода
Параметр матрицы формата : Выборочная
Идентификатор кодека : XVID
Идентификатор кодека/Подсказка : XviD
Продолжительность : 1 ч. 13 м.
Битрейт : 1356 Кбит/сек
Ширина : 688 пикселей
Высота : 528 пикселей
Соотношение сторон : 4:3
Частота кадров : 25,000 кадров/сек
Цветовое пространство : YUV
Субдискретизация насыщенности : 4:2:0
Битовая глубина : 8 бит
Тип развёртки : Прогрессивная
Метод сжатия : С потерями
Бит/(Пиксели*Кадры) : 0.149
Размер потока : 708 Мбайт (91%)
Библиотека кодирования : XviD 65

Аудио
Идентификатор : 1
Формат : MPEG Audio
Версия формата : Version 1
Профиль формата : Layer 3
Идентификатор кодека : 55
Идентификатор кодека/Подсказка : MP3
Продолжительность : 1 ч. 13 м.
Вид битрейта : Постоянный
Битрейт : 128 Кбит/сек
Каналы : 2 канала
Частота : 48,0 КГц
Метод сжатия : С потерями
Размер потока : 66,9 Мбайт (9%)
Выравнивание : Соединение по промежуткам
Продолжительность промежутка : 40 мс. (1,00 видеокадр)
Время предзагрузки промежутка : 504 мс.
Библиотека кодирования : L3.99r
Настройки программы : -m s -V 4 -q 2 -lowpass 17 -b 128





   Похожие торренты   Торрент   Размер 
В этой теме нет новых непрочитанных сообщений. Руслан и Людмила (1972) DVDRip от Youtracker

32 | 2

2.19 ГБ

В этой теме нет новых непрочитанных сообщений. Руслан и Людмила (1972) DVDRip-AVC от Youtracker

70 | 15

2.18 ГБ

В этой теме нет новых непрочитанных сообщений. Руслан и Людмила (1972) DVDRip - AVC от Киномагия

11 | 6

2.63 ГБ

В этой теме нет новых непрочитанных сообщений. Руслан и Людмила [01-02 из 02] (1972) DVDRip от olegek70

243 | 18

2.81 ГБ

В этой теме нет новых непрочитанных сообщений. Александр Пушкин - Руслан и Людмила (2006) MP3

545 | 32

313.73 МБ

В этой теме нет новых непрочитанных сообщений. Схватка (1972) DVDRip от Youtracker

14 | 4

1.46 ГБ

В этой теме нет новых непрочитанных сообщений. Золотые рога (1972) DVDRip от Youtracker

66 | 7

1.46 ГБ




Вы не можете начинать темы
Вы не можете отвечать на сообщения
Вы не можете редактировать свои сообщения
Вы не можете удалять свои сообщения
Вы не можете добавлять вложения

Перейти:  
Для Мосгорсуда, Роскомнадзора и рекламодателей: mosgorsud-torrent[собачка]yandex.ru
 Вход
ppkBB3cker v.2 © 2008-2014 @ PPK
[ Time : 0.514s | 14 Queries | GZIP : Off ]

Торрент трекер RUTOR.IN, Не можете зайти на rutor.org? Какой новый адрес рутор? Какое зеркало рутор? Не работает rutor.org и зеркала? Тогда наш торрент специально для вас. Rutor.in неофициальное зеркало rutor. В случае если у Вас заблокирован rutor или вдруг Вы не можете на него зайти, то Вы без труда сможете скачать бесплатно и без рекламы последние новинки кино, игр, сериалов и прочего у нас, на Rutor.in. Не нужно использовать прокси, чтобы зайти на рутор, достаточно воспользоваться нашим ресурсом. Все новые фильмы, игры, сериалы, книги и музыка за 2013 и 2014 годы через торрент бесплатно. Скачивайте фильмы в хорошем качестве, игры для пк, xbox, playstation без регистрации. У нас вы найдете новые Зарубежные сериалы и Русские сериалы 2013, 2014, 2015 годов. Оставайтесь с нами, качайте любимые фильмы, игры, сериалы, книги и музыку.