img image001 image001 image001 image001 image001 image001 image001 image001 image001 image001 image001 image001 image001 image001 image001

Planets Sun Sun Sun
Статистика раздачи
Автор: Снежана | Размер: 2.1 ГБ | Добавлен: 24 июл 2013
Раздают: 26    Качают: 9
Скачать торрент
Скачать торрент
Описание торрента

СообщениеДобавлено: 24 июл 2013 

#77

Страна: Россия, Украина
Жанр: военный
Год выпуска: 2009
Продолжительность: 01:50:53
Перевод: Не требуется


Режиссер: Сергей Сотниченко


В ролях: Игорь Скляр (Отто Риттель), Александр Лыков (Вальтер Груббе), Андрей Межулис (Гайдулин), Владимир Капустин (Ракитин), Виталий Линецкий (Мосин), Алексей Лонгин (Ревенко), Маргарита Быстрякова (советская разведчица Савченко), Виолетта Трыкова (Ядвига), Василий Баша (Богдан Иванович Бондарь), Сергей Стрельников (Чекалин), Константин Корецкий («рыжий»), Георгий Поволоцкий («филин»)


Описание: 1944 год. На Западной Украине немцы начинают масштабное, но максимально засекреченное строительство. Советское командование обязано узнать истинную цель строительства, ведь именно в этом направлении намечен основной удар советских войск. Разведку решено вести в нескольких направлениях. В зону строительства направляется разведгруппа, но параллельно на Западную Украину прибывает советский резидент, давно и успешно работающий в немецком тылу. Кто-то из них должен добраться до истины. Третьего не дано...






Семпл


Качество: BDRip
Контейнер: MKV

Видео: AVC, 1024x576 (16:9), 2259 kbps, 25 fps, 0,153 bpp
Аудио: русский / AC3 / 5.1 / 48 kHz / 448 kbps
Навигация по главам: есть


General
Unique ID : 172278507955082717337541986081124308737 (0x819BA23BC4E6F92BAB98AD03C962D701)
Complete name : C:TorrentTretjego.Ne.Dano.BDRipAVC.mkv
Format : Matroska
Format version : Version 2
File size : 2.10 GiB
Duration : 1h 50mn
Overall bit rate : 2 708 Kbps
Movie name : = Третьего не дано BDRip by SC Kosmos =
Encoded date : UTC 2013-07-20 12:50:41
Writing application : mkvmerge v3.3.0 ('Language') gebaut am Mar 24 2010 14:59:24
Writing library : libebml v0.8.0 + libmatroska v0.9.0

Video
ID : 1
Format : AVC
Format/Info : Advanced Video Codec
Format profile : High@L4.1
Format settings, CABAC : Yes
Format settings, ReFrames : 12 frames
Codec ID : V_MPEG4/ISO/AVC
Duration : 1h 50mn
Bit rate : 2 259 Kbps
Width : 1 024 pixels
Height : 576 pixels
Display aspect ratio : 16:9
Frame rate : 25.000 fps
Color space : YUV
Chroma subsampling : 4:2:0
Bit depth : 8 bits
Scan type : Progressive
Bits/(Pixel*Frame) : 0.153
Stream size : 1.71 GiB (81%)
Title : Третьего не дано BDRip by SC Kosmos
Writing library : x264 core 135 r2345 f0c1c53
Encoding settings : cabac=1 / ref=12 / deblock=1:-2:-2 / analyse=0x3:0x112 / me=umh / subme=10 / psy=1 / psy_rd=1.00:0.05 / mixed_ref=1 / me_range=32 / chroma_me=1 / trellis=2 / 8x8dct=1 / cqm=0 / deadzone=21,11 / fast_pskip=0 / chroma_qp_offset=-3 / threads=12 / lookahead_threads=1 / sliced_threads=0 / nr=0 / decimate=1 / interlaced=0 / bluray_compat=0 / constrained_intra=0 / bframes=12 / b_pyramid=2 / b_adapt=1 / b_bias=0 / direct=1 / weightb=1 / open_gop=0 / weightp=2 / keyint=250 / keyint_min=25 / scenecut=40 / intra_refresh=0 / rc_lookahead=40 / rc=2pass / mbtree=1 / bitrate=2259 / ratetol=1.0 / qcomp=0.60 / qpmin=0 / qpmax=69 / qpstep=4 / cplxblur=20.0 / qblur=0.5 / vbv_maxrate=50000 / vbv_bufsize=50000 / nal_hrd=none / ip_ratio=1.40 / aq=1:1.00
Language : Russian
Default : No
Forced : No

Audio
ID : 2
Format : AC-3
Format/Info : Audio Coding 3
Mode extension : CM (complete main)
Codec ID : A_AC3
Duration : 1h 50mn
Bit rate mode : Constant
Bit rate : 448 Kbps
Channel(s) : 6 channels
Channel positions : Front: L C R, Side: L R, LFE
Sampling rate : 48.0 KHz
Bit depth : 16 bits
Compression mode : Lossy
Stream size : 355 MiB (17%)
Language : Russian
Default : Yes
Forced : No

Menu
00:00:00.000 : en:00:00:00.000
00:08:00.000 : en:00:08:00.000
00:16:00.000 : en:00:16:00.000
00:24:00.000 : en:00:24:00.000
00:32:00.000 : en:00:32:00.000
00:40:00.000 : en:00:40:00.000
00:48:00.000 : en:00:48:00.000
00:56:00.000 : en:00:56:00.000
01:04:00.000 : en:01:04:00.000
01:12:00.000 : en:01:12:00.000
01:28:00.000 : en:01:28:00.000
01:40:00.000 : en:01:40:00.000

x264 [info]: frame I:1264 Avg QP:16.11 size: 70974
x264 [info]: frame P:61819 Avg QP:19.42 size: 23557
x264 [info]: frame B:103248 Avg QP:23.27 size: 3219










Раздача немецкой кастрированной версии сериала.



   Похожие торренты   Торрент   Размер 
В этой теме нет новых непрочитанных сообщений. Третьего не дано [01-04 из 04] (2009) DVDRip

38 | 8

2.73 ГБ

В этой теме нет новых непрочитанных сообщений. Третьего не дано [01-04 из 04] (2009) DVD5

1 | 3

4.29 ГБ

В этой теме нет новых непрочитанных сообщений. Третьего не дано [01-04 из 04] (2009) WEBRip 1080p

2 | 4

5.2 ГБ

В этой теме нет новых непрочитанных сообщений. Третьего не дано [01-04 из 04] (2009) WEBRip 720p

6 | 5

2.48 ГБ

В этой теме нет новых непрочитанных сообщений. В поисках истины. Наркотики Третьего рейха (2009) SATRip

51 | 5

618.66 МБ

В этой теме нет новых непрочитанных сообщений. Тайны времени. Мистическая история Третьего рейха (2009) TVRip от tenow

44 | 3

301.84 МБ

В этой теме нет новых непрочитанных сообщений. Нам не дано предугадать... (1985) TVRip

0 | 2

375.2 МБ




Вы не можете начинать темы
Вы не можете отвечать на сообщения
Вы не можете редактировать свои сообщения
Вы не можете удалять свои сообщения
Вы не можете добавлять вложения

Перейти:  
Для Мосгорсуда, Роскомнадзора и рекламодателей: mosgorsud-torrent[собачка]yandex.ru
 Вход
ppkBB3cker v.2 © 2008-2014 @ PPK
[ Time : 1.800s | 14 Queries | GZIP : Off ]

Торрент трекер RUTOR.IN, Не можете зайти на rutor.org? Какой новый адрес рутор? Какое зеркало рутор? Не работает rutor.org и зеркала? Тогда наш торрент специально для вас. Rutor.in неофициальное зеркало rutor. В случае если у Вас заблокирован rutor или вдруг Вы не можете на него зайти, то Вы без труда сможете скачать бесплатно и без рекламы последние новинки кино, игр, сериалов и прочего у нас, на Rutor.in. Не нужно использовать прокси, чтобы зайти на рутор, достаточно воспользоваться нашим ресурсом. Все новые фильмы, игры, сериалы, книги и музыка за 2013 и 2014 годы через торрент бесплатно. Скачивайте фильмы в хорошем качестве, игры для пк, xbox, playstation без регистрации. У нас вы найдете новые Зарубежные сериалы и Русские сериалы 2013, 2014, 2015 годов. Оставайтесь с нами, качайте любимые фильмы, игры, сериалы, книги и музыку.