img image001 image001 image001 image001 image001 image001 image001 image001 image001 image001 image001 image001 image001 image001 image001

Planets Sun Sun Sun
Статистика раздачи
Автор: Снежана | Размер: 2.18 ГБ | Добавлен: 24 июл 2013
Раздают: 70    Качают: 15
Скачать торрент
Скачать торрент
Описание торрента

СообщениеДобавлено: 24 июл 2013 

#77
Страна: СССР
Производство: Мосфильм
Жанр: фэнтези, сказка
Год выпуска: 1970
Продолжительность: 02:19:36 (01:13:02 + 01:06:34)

Перевод: не требуется
Оригинальная аудиодорожка: русский
Cубтитры: нет

Режиссер: Александр Птушко

В ролях:
Наталья Петрова, Валерий Козинец, Олег Мокшанцев, Руслан Ахметов, Вячеслав Невинный, Андрей Абрикосов, Владимир Федоров, Наталья Хренникова, Мария Капнист, Игорь Ясулович, Виктор Шульгин, Сергей Мартинсон, Ээве Киви, Шавкат Газиев, Николай Кутузов...

Описание:
Поставленный по мотивам знаменитой поэмы А. С. Пушкина, фильм погружает зрителя в мир волшебной сказки. Доблестный Руслан, отправившийся на поиски похищенной невесты, одолевает коварство, обман, злое колдовство — и, в конце концов, в жестоком бою побеждает Черномора…
Создатели картины сумели решить сложнейшую творческую задачу, передав экранными средствами самые тонкие нюансы гениального первоисточника, его дух, драматизм и поэтическую прелесть…





Исходник: DVD9 R5
Тип релиза: DVDRip-AVC
Контейнер: MKV

Видео: 696->768x572 (4:3), 25 fps, H264 ~ 1791 kbps avg, 0.180 bit/pixel
Аудио: 48 kHz, Dolby AC3 5.1, 448 kbps

Раздача от:
Общее
Полное имя : Ruslan.i.Ljudmila.1972.DVDRip-AVC_[Youtracker]_by_AVP Studio.mkv
Формат : Matroska
Версия формата : Version 2
Размер файла : 1,14 Гбайт
Продолжительность : 1 ч. 13 м.
Общий поток : 2241 Кбит/сек
Дата кодирования : UTC 2013-07-20 04:10:05
Программа кодирования : mkvmerge v5.0.1 ('Es ist Sommer') built on Nov 6 2011 16:23:40
Библиотека кодирования : libebml v1.2.2 + libmatroska v1.3.0

Видео
Идентификатор : 1
Формат : AVC
Формат/Информация : Advanced Video Codec
Профиль формата : High@L4.1
Параметр CABAC формата : Да
Параметр ReFrames формата : 11 кадров
Идентификатор кодека : V_MPEG4/ISO/AVC
Продолжительность : 1 ч. 13 м.
Битрейт : 1791 Кбит/сек
Ширина : 696 пикселей
Высота : 572 пикселя
Соотношение сторон : 4:3
Частота кадров : 25,000 кадров/сек
Цветовое пространство : YUV
Субдискретизация насыщенности : 4:2:0
Битовая глубина : 8 бит
Тип развёртки : Прогрессивная
Бит/(Пиксели*Кадры) : 0.180
Размер потока : 913 Мбайт (78%)
Библиотека кодирования : x264 core 130 r2273 b3065e6
Настройки программы : cabac=1 / ref=11 / deblock=1:-2:-1 / analyse=0x3:0x113 / me=umh / subme=9 / psy=1 / psy_rd=1.00:0.20 / mixed_ref=1 / me_range=32 / chroma_me=1 / trellis=1 / 8x8dct=1 / cqm=0 / deadzone=21,11 / fast_pskip=0 / chroma_qp_offset=-3 / threads=3 / lookahead_threads=1 / sliced_threads=0 / nr=0 / decimate=0 / interlaced=0 / bluray_compat=0 / constrained_intra=0 / bframes=8 / b_pyramid=2 / b_adapt=2 / b_bias=0 / direct=3 / weightb=1 / open_gop=0 / weightp=2 / keyint=250 / keyint_min=25 / scenecut=40 / intra_refresh=0 / rc_lookahead=60 / rc=2pass / mbtree=1 / bitrate=1791 / ratetol=1.0 / qcomp=0.60 / qpmin=0 / qpmax=69 / qpstep=4 / cplxblur=20.0 / qblur=0.5 / ip_ratio=1.40 / aq=1:1.00
Default : Да
Forced : Нет

Аудио
Идентификатор : 2
Формат : AC-3
Формат/Информация : Audio Coding 3
Расширение режима : CM (complete main)
Идентификатор кодека : A_AC3
Продолжительность : 1 ч. 13 м.
Вид битрейта : Постоянный
Битрейт : 448 Кбит/сек
Каналы : 6 каналов
Расположение каналов : Front: L C R, Side: L R, LFE
Частота : 48,0 КГц
Битовая глубина : 16 бит
Метод сжатия : С потерями
Размер потока : 234 Мбайт (20%)
Default : Да
Forced : Нет





   Похожие торренты   Торрент   Размер 
В этой теме нет новых непрочитанных сообщений. Руслан и Людмила (1972) DVDRip от Youtracker

149 | 22

1.46 ГБ

В этой теме нет новых непрочитанных сообщений. Руслан и Людмила (1972) DVDRip от Youtracker

32 | 2

2.19 ГБ

В этой теме нет новых непрочитанных сообщений. Руслан и Людмила (1972) DVDRip-AVC

75 | 16

4.24 ГБ

В этой теме нет новых непрочитанных сообщений. Руслан и Людмила (1972) DVDRip - AVC от Киномагия

11 | 6

2.63 ГБ

В этой теме нет новых непрочитанных сообщений. Руслан и Людмила [01-02 из 02] (1972) DVDRip от olegek70

243 | 18

2.81 ГБ

В этой теме нет новых непрочитанных сообщений. Александр Пушкин - Руслан и Людмила (2006) MP3

530 | 29

313.73 МБ

В этой теме нет новых непрочитанных сообщений. Схватка (1972) DVDRip от Youtracker

14 | 4

1.46 ГБ




Вы не можете начинать темы
Вы не можете отвечать на сообщения
Вы не можете редактировать свои сообщения
Вы не можете удалять свои сообщения
Вы не можете добавлять вложения

Перейти:  
Для Мосгорсуда, Роскомнадзора и рекламодателей: mosgorsud-torrent[собачка]yandex.ru
 Вход
ppkBB3cker v.2 © 2008-2014 @ PPK
[ Time : 0.050s | 15 Queries | GZIP : Off ]

cron