img image001 image001 image001 image001 image001 image001 image001 image001 image001 image001 image001 image001 image001 image001 image001

Planets Sun Sun Sun
Статистика раздачи
Автор: Снежана | Размер: 2.89 ГБ | Добавлен: 24 июл 2013
Раздают: 7    Качают: 2
Скачать торрент
Скачать торрент
Описание торрента

СообщениеДобавлено: 24 июл 2013 

Гагарин. Первый в космосе



Страна: Россия
Жанр: драма, биография, история
Год выпуска: 2013
Продолжительность: 01:48:11
Перевод: оригинал [Лицензия]
Субтитры: нет
Главы: есть

Режиссер: Павел Пархоменко
В ролях: Ярослав Жалнин, Михаил Филиппов, Вадим Мичман, Анатолий Отраднов, Даниил Воробьёв, Сергей Калашников, Сергей Лактюнькин, Владимир Стеклов, Инга Оболдина, Владимир Чуприков, Ольга Иванова, Надежда Маркина, Виктор Проскурин, Дмитрий Калистратов, Анзор Камариддинов, Андрей Демченко, Максим Сапрыкин, Данила Букрин, Сергей Тезов, Сергей Кагаков, Вадим Голишников, Анастасия Привалова, Анатолий Гущин, Иван Добронравов, Михаил Горский, Дмитрий Георгиевский, Евгений Потапенко, Дмитрий Тихонов, Алексей Парасич, Александр Завьялов, Илья Рутберг, Валерий Афанасьев, Анатолий Калмыков, Дарья Балабанова


Описание: Фильм посвящен первым шагам человечества на пути освоения космоса и непосредственно судьбе первого космонавта Ю. А. Гагарина. Основной лейтмотив — борьба за право быть первым: соревнование в первом отряде космонавтов; конкуренция технологий в ракетостроении; противостояние сверхдержав — СССР и США. В первый отряд космонавтов отбирали из трёх тысяч летчиков-истребителей по всей стране. В легендарную двадцатку попали лучшие из лучших. Кто из них полетит первым, не знал никто. На этом пути пришлось бороться не только с земным притяжением…


Сэмпл


Качество видео: BDRip-AVC (энкод L)
Формат видео: MKV

Видео: AVC / High@L4.1 / 1056 x 594 / 3 381 Kbps / 16:9
Аудио: Russian: 48 kHz, AC3 Dolby Digital, 3/2 (L,C,R,l,r) + LFE ch, ~448 kbps

Раздача от








GAGARIN_HDCLUB


Общее
Уникальный идентификатор : 219536069438466905798048404144842803525 (0xA5291BE7744B12D1AA550C5B425B0945)
Полное имя : D:25KadrGagarin.Pervyj.v.kosmose.2013.Bluray.x264.ac3.rus.by.L.mkv
Формат : Matroska
Версия формата : Version 2
Размер файла : 2,89 Гбайт
Продолжительность : 1 ч. 48 м.
Общий поток : 3830 Кбит/сек
Название фильма : Гагарин. Первый в космосе [2013 г.] | Рип L | Unionpeer
Дата кодирования : UTC 2013-07-20 19:17:29
Программа кодирования : mkvmerge v3.2.0 ('Beginnings') built on Feb 12 2010 16:46:17
Библиотека кодирования : libebml v0.7.9 + libmatroska v0.8.1

Видео
Идентификатор : 1
Формат : AVC
Формат/Информация : Advanced Video Codec
Профиль формата : High@L4.1
Параметр CABAC формата : Да
Параметр ReFrames формата : 9 кадров
Идентификатор кодека : V_MPEG4/ISO/AVC
Продолжительность : 1 ч. 48 м.
Битрейт : 3381 Кбит/сек
Ширина : 1056 пикселей
Высота : 594 пикселя
Соотношение сторон : 16:9
Режим частоты кадров : Постоянный
Частота кадров : 25,000 кадров/сек
Цветовое пространство : YUV
Субдискретизация насыщенности : 4:2:0
Битовая глубина : 8 бит
Тип развёртки : Прогрессивная
Бит/(Пиксели*Кадры) : 0.216
Размер потока : 2,50 Гбайт (86%)
Библиотека кодирования : x264 core 133 r2334 a3ac64b
Настройки программы : cabac=1 / ref=9 / deblock=1:-2:-1 / analyse=0x3:0x133 / me=umh / subme=11 / psy=1 / psy_rd=1.10:0.10 / mixed_ref=1 / me_range=32 / chroma_me=1 / trellis=2 / 8x8dct=1 / cqm=0 / deadzone=21,11 / fast_pskip=0 / chroma_qp_offset=-4 / threads=6 / lookahead_threads=1 / sliced_threads=0 / nr=0 / decimate=1 / interlaced=0 / bluray_compat=0 / constrained_intra=0 / bframes=9 / b_pyramid=2 / b_adapt=2 / b_bias=0 / direct=3 / weightb=1 / open_gop=0 / weightp=2 / keyint=240 / keyint_min=22 / scenecut=40 / intra_refresh=0 / rc_lookahead=0 / rc=2pass / mbtree=0 / bitrate=3381 / ratetol=1.0 / qcomp=0.70 / qpmin=0 / qpmax=69 / qpstep=4 / cplxblur=20.0 / qblur=0.5 / vbv_maxrate=50000 / vbv_bufsize=62500 / nal_hrd=none / ip_ratio=1.35 / pb_ratio=1.25 / aq=2:0.90
Язык : English
Default : Нет
Forced : Нет

Аудио
Идентификатор : 2
Формат : AC-3
Формат/Информация : Audio Coding 3
Расширение режима : CM (complete main)
Параметр Endianness формата : Big
Идентификатор кодека : A_AC3
Продолжительность : 1 ч. 48 м.
Вид битрейта : Постоянный
Битрейт : 448 Кбит/сек
Каналы : 6 каналов
Расположение каналов : Front: L C R, Side: L R, LFE
Частота : 48,0 КГц
Битовая глубина : 16 бит
Метод сжатия : С потерями
Размер потока : 347 Мбайт (12%)
Язык : Russian
Default : Да
Forced : Нет

Меню
00:00:00.000 : en:00:00:00.000
00:08:32.880 : en:00:08:32.880
00:19:21.240 : en:00:19:21.240
00:28:46.560 : en:00:28:46.560
00:41:21.200 : en:00:41:21.200
00:50:17.600 : en:00:50:17.600
00:59:30.880 : en:00:59:30.880
01:08:02.400 : en:01:08:02.400
01:14:33.320 : en:01:14:33.320
01:28:30.840 : en:01:28:30.840
01:34:35.880 : en:01:34:35.880
01:43:30.360 : en:01:43:30.360



---[Information] [20.07.2013 22:06:52] x264 [info]: frame I:1310 Avg QP:18.27 size: 98465 PSNR Mean Y:45.03 U:49.65 V:49.99 Avg:46.10 Global:45.21
---[Information] [20.07.2013 22:06:52] x264 [info]: frame P:32837 Avg QP:20.99 size: 33755 PSNR Mean Y:43.07 U:48.38 V:48.68 Avg:44.21 Global:43.05
---[Information] [20.07.2013 22:06:52] x264 [info]: frame B:128122 Avg QP:22.96 size: 11744 PSNR Mean Y:42.49 U:48.24 V:48.62 Avg:43.69 Global:42.35




   Похожие торренты   Торрент   Размер 
В этой теме нет новых непрочитанных сообщений. Гагарин. Первый в космосе (2013) BDRip 1080p

86 | 3

7.75 ГБ

В этой теме нет новых непрочитанных сообщений. Гагарин. Первый в космосе (2013) BDRip-AVC от FREEISLAND

28 | 3

3.21 ГБ

В этой теме нет новых непрочитанных сообщений. Гагарин. Первый в космосе (2013) BDRip-AVC от Stalker oK | Лицензия

211 | 6

742.77 МБ

В этой теме нет новых непрочитанных сообщений. Гагарин. Первый в космосе (2013) BDRip от HQCLUB | Лицензия

437 | 19

2 ГБ

В этой теме нет новых непрочитанных сообщений. Гагарин. Первый в космосе (2013) BDRip-AVC от HELLYWOOD | Лицензия

598 | 49

2.19 ГБ

В этой теме нет новых непрочитанных сообщений. Гагарин. Первый в космосе (2013) BDRip 1080p от Youtracker

70 | 13

11.46 ГБ

В этой теме нет новых непрочитанных сообщений. Гагарин. Первый в космосе (2013) BDRip от Youtracker | лицензия

16 | 2

2.16 ГБ




Вы не можете начинать темы
Вы не можете отвечать на сообщения
Вы не можете редактировать свои сообщения
Вы не можете удалять свои сообщения
Вы не можете добавлять вложения

Перейти:  
Для Мосгорсуда, Роскомнадзора и рекламодателей: mosgorsud-torrent[собачка]yandex.ru
 Вход
ppkBB3cker v.2 © 2008-2014 @ PPK
[ Time : 0.100s | 16 Queries | GZIP : Off ]

Торрент трекер RUTOR.IN, Не можете зайти на rutor.org? Какой новый адрес рутор? Какое зеркало рутор? Не работает rutor.org и зеркала? Тогда наш торрент специально для вас. Rutor.in неофициальное зеркало rutor. В случае если у Вас заблокирован rutor или вдруг Вы не можете на него зайти, то Вы без труда сможете скачать бесплатно и без рекламы последние новинки кино, игр, сериалов и прочего у нас, на Rutor.in. Не нужно использовать прокси, чтобы зайти на рутор, достаточно воспользоваться нашим ресурсом. Все новые фильмы, игры, сериалы, книги и музыка за 2013 и 2014 годы через торрент бесплатно. Скачивайте фильмы в хорошем качестве, игры для пк, xbox, playstation без регистрации. У нас вы найдете новые Зарубежные сериалы и Русские сериалы 2013, 2014, 2015 годов. Оставайтесь с нами, качайте любимые фильмы, игры, сериалы, книги и музыку.
cron