img image001 image001 image001 image001 image001 image001 image001 image001 image001 image001 image001 image001 image001 image001 image001

Planets Sun Sun Sun
Статистика раздачи
Автор: Снежана | Размер: 4.37 ГБ | Добавлен: 25 июл 2013
Раздают: 56    Качают: 6
Скачать торрент
Скачать торрент
Описание торрента

СообщениеДобавлено: 25 июл 2013 


Информация о фильме
    Оригинальное название: Гагарин. Первый в космосе
    Год выхода: 2013
    Жанр: Драма, биография, история
    Режиссер: Павел Пархоменко
    Выпущено: Россия
    Продолжительность: 01:48:10
    Перевод: Не требуется
    В ролях: Ярослав Жалнин, Михаил Филиппов, Владимир Стеклов, Ольга Иванова, Вадим Мичман, Даниил Воробьев, Надежда Маркина, Виктор Проскурин, Инга Стрелкова-Оболдина, Сергей Калашников


Сюжет фильма
    Фильм посвящен первым шагам человечества на пути освоения космоса и непосредственно судьбе первого космонавта Ю. А. Гагарина. Основной лейтмотив — борьба за право быть первым: соревнование в первом отряде космонавтов; конкуренция технологий в ракетостроении; противостояние сверхдержав — СССР и США.
    В первый отряд космонавтов отбирали из трёх тысяч летчиков-истребителей по всей стране. В легендарную двадцатку попали лучшие из лучших. Кто из них полетит первым, не знал никто. На этом пути пришлось бороться не только с земным притяжением…


Файл
    Качество: BDRip 720p (DVD5) (исходник Blu-ray disc)
    Видео: 1280x720, 5145 Кбит/сек, 25,000 кадр/сек, AVC, x264, High@L4.1, 16:9, 0.223 Бит/[Пиксели*Кадры], 2pass
    Аудио 1: AC-3, 640 Кбит/сек, 6 канала(ов), 48,0 КГц - Оригинал / Русский
    Субтитры: Нет
    Чаптеры: Есть



Релиз Группа | Автор Рипа:



Format : Matroska
Format version : Version 4 / Version 2
File size : 4.37 GiB
Duration : 1h 48mn
Overall bit rate : 5 779 Kbps
Movie name : Гагарин. Первый в космосе.(2013).BDRip.1080p.(DVD9).[NoLimits-Team]
Encoded date : UTC 2013-07-20 19:19:19
Writing application : mkvmerge v6.3.0 ('You can't stop me!') built on Jun 28 2013 20:09:41
Writing library : libebml v1.3.0 + libmatroska v1.4.0

Video
ID : 1
Format : AVC
Format/Info : Advanced Video Codec
Format profile : High@L4.1
Format settings, CABAC : Yes
Format settings, ReFrames : 9 frames
Codec ID : V_MPEG4/ISO/AVC
Duration : 1h 48mn
Bit rate : 5 145 Kbps
Width : 1 280 pixels
Height : 720 pixels
Display aspect ratio : 16:9
Frame rate mode : Constant
Frame rate : 25.000 fps
Color space : YUV
Chroma subsampling : 4:2:0
Bit depth : 8 bits
Scan type : Progressive
Bits/(Pixel*Frame) : 0.223
Stream size : 3.80 GiB (87%)
Title : Гагарин. Первый в космосе.(2013).BDRip.1080p.(DVD9).[NoLimits-Team]
Writing library : x264 core 135 r2345 f0c1c53
Encoding settings : cabac=1 / ref=9 / deblock=1:0:0 / analyse=0x3:0x113 / me=umh / subme=11 / psy=1 / psy_rd=1.00:0.00 / mixed_ref=1 / me_range=64 / chroma_me=1 / trellis=2 / 8x8dct=1 / cqm=0 / deadzone=21,11 / fast_pskip=0 / chroma_qp_offset=-2 / threads=12 / lookahead_threads=3 / sliced_threads=0 / nr=0 / decimate=1 / interlaced=0 / bluray_compat=0 / constrained_intra=0 / bframes=14 / b_pyramid=2 / b_adapt=2 / b_bias=0 / direct=3 / weightb=1 / open_gop=0 / weightp=2 / keyint=250 / keyint_min=25 / scenecut=40 / intra_refresh=0 / rc_lookahead=60 / rc=2pass / mbtree=1 / bitrate=5145 / ratetol=2.0 / qcomp=0.60 / qpmin=0 / qpmax=51 / qpstep=4 / cplxblur=20.0 / qblur=0.5 / ip_ratio=1.40 / aq=1:1.00
Language : Russian
Default : Yes
Forced : No

Audio
ID : 2
Format : AC-3
Format/Info : Audio Coding 3
Mode extension : CM (complete main)
Format settings, Endianness : Big
Codec ID : A_AC3
Duration : 1h 48mn
Bit rate mode : Constant
Bit rate : 640 Kbps
Channel(s) : 6 channels
Channel positions : Front: L C R, Side: L R, LFE
Sampling rate : 48.0 KHz
Bit depth : 16 bits
Compression mode : Lossy
Stream size : 495 MiB (11%)
Title : Оригинал
Language : Russian
Default : Yes
Forced : No

Menu
00:00:00.000 : :Chapter 01
00:08:32.880 : :Chapter 02
00:19:21.240 : :Chapter 03
00:28:46.560 : :Chapter 04
00:41:21.200 : :Chapter 05
00:50:17.600 : :Chapter 06
00:59:30.880 : :Chapter 07
01:08:02.400 : :Chapter 08
01:14:33.320 : :Chapter 09
01:28:30.840 : :Chapter 10
01:34:35.880 : :Chapter 11
01:43:30.360 : :Chapter 12





   Похожие торренты   Торрент   Размер 
В этой теме нет новых непрочитанных сообщений. Гагарин. Первый в космосе (2013) BDRip-AVC от New-Team | Лицензия

74 | 16

1.45 ГБ

В этой теме нет новых непрочитанных сообщений. Гагарин. Первый в космосе (2013) BDRip 720p от MediaClub | Лицензия

59 | 6

7.94 ГБ

В этой теме нет новых непрочитанных сообщений. Гагарин. Первый в космосе (2013) BDRip 720p от leonardo 59 & Scarabey | Лицензия

61 | 6

8.02 ГБ

В этой теме нет новых непрочитанных сообщений. Гагарин. Первый в космосе (2013) HD 720p | Трейлер

3 | 2

63.7 МБ

В этой теме нет новых непрочитанных сообщений. Гагарин. Первый в космосе (2013) BDRip-AVC от L

7 | 2

2.89 ГБ

В этой теме нет новых непрочитанных сообщений. Гагарин. Первый в космосе (2013) BDRip 1080p

86 | 3

7.75 ГБ

В этой теме нет новых непрочитанных сообщений. Гагарин. Первый в космосе (2013) BDRip-AVC от FREEISLAND

28 | 3

3.21 ГБ




Вы не можете начинать темы
Вы не можете отвечать на сообщения
Вы не можете редактировать свои сообщения
Вы не можете удалять свои сообщения
Вы не можете добавлять вложения

Перейти:  
Для Мосгорсуда, Роскомнадзора и рекламодателей: mosgorsud-torrent[собачка]yandex.ru
 Вход
ppkBB3cker v.2 © 2008-2014 @ PPK
[ Time : 0.062s | 14 Queries | GZIP : Off ]

Торрент трекер RUTOR.IN, Не можете зайти на rutor.org? Какой новый адрес рутор? Какое зеркало рутор? Не работает rutor.org и зеркала? Тогда наш торрент специально для вас. Rutor.in неофициальное зеркало rutor. В случае если у Вас заблокирован rutor или вдруг Вы не можете на него зайти, то Вы без труда сможете скачать бесплатно и без рекламы последние новинки кино, игр, сериалов и прочего у нас, на Rutor.in. Не нужно использовать прокси, чтобы зайти на рутор, достаточно воспользоваться нашим ресурсом. Все новые фильмы, игры, сериалы, книги и музыка за 2013 и 2014 годы через торрент бесплатно. Скачивайте фильмы в хорошем качестве, игры для пк, xbox, playstation без регистрации. У нас вы найдете новые Зарубежные сериалы и Русские сериалы 2013, 2014, 2015 годов. Оставайтесь с нами, качайте любимые фильмы, игры, сериалы, книги и музыку.