img image001 image001 image001 image001 image001 image001 image001 image001 image001 image001 image001 image001 image001 image001 image001

Planets Sun Sun Sun
Статистика раздачи
Автор: Снежана | Размер: 7.75 ГБ | Добавлен: 24 июл 2013
Раздают: 86    Качают: 3
Скачать торрент
Скачать торрент
Описание торрента

СообщениеДобавлено: 24 июл 2013 

#77

Информация о фильме
Оригинальное название: Гагарин. Первый в космосе
Год выхода: 2013
Жанр: драма, биография, история
Режиссер: Павел Пархоменко
В ролях: Ярослав Жалнин, Михаил Филиппов, Владимир Стеклов, Ольга Иванова, Вадим Мичман, Даниил Воробьев, Надежда Маркина, Виктор Проскурин, Инга Стрелкова-Оболдина, Сергей Калашников

О фильме:
Фильм посвящен первым шагам человечества на пути освоения космоса и непосредственно судьбе первого космонавта Ю. А. Гагарина. Основной лейтмотив — борьба за право быть первым: соревнование в первом отряде космонавтов; конкуренция технологий в ракетостроении; противостояние сверхдержав — СССР и США. В первый отряд космонавтов отбирали из трёх тысяч летчиков-истребителей по всей стране. В легендарную двадцатку попали лучшие из лучших. Кто из них полетит первым, не знал никто. На этом пути пришлось бороться не только с земным притяжением.



Выпущено: Россия
Студия: Кремлин Филмз
Продолжительность: 01:48:10
Перевод: Не требуется

Файл
Кодек: x264
Качество: BDRip (источник: Blu-ray Disc)
Видео: 1920x1080 (16:9), 25.000 fps, 9625 kbps
Аудио: AC-3, 6 ch, 640 kbps (Оригинал / Русский)
Субтитры: Нет
Скачать: семпл

Общее
Уникальный идентификатор : 204809571205955058023332893891600847917 (0x9A14E37BD4D0D8098C07BE47AA00142D)
Полное имя : E:Гагарин.Первый.в.космосе.2013.BDRip.1080p.Rus.mkv
Формат : Matroska
Версия формата : Version 4 / Version 2
Размер файла : 7,75 Гбайт
Продолжительность : 1 ч. 48 м.
Общий поток : 10,3 Мбит/сек
Название фильма : Гагарин. Первый в космосе (2013)
Дата кодирования : UTC 2013-07-21 12:22:15
Программа кодирования : mkvmerge v6.3.0 ('You can't stop me!') built on Jun 28 2013 20:09:41
Библиотека кодирования : libebml v1.3.0 + libmatroska v1.4.0

Видео
Идентификатор : 1
Формат : AVC
Формат/Информация : Advanced Video Codec
Профиль формата : High@L4.1
Параметр CABAC формата : Да
Параметр ReFrames формата : 4 кадра
Идентификатор кодека : V_MPEG4/ISO/AVC
Продолжительность : 1 ч. 48 м.
Битрейт : 9625 Кбит/сек
Ширина : 1920 пикселей
Высота : 1080 пикселей
Соотношение сторон : 16:9
Режим частоты кадров : Постоянный
Частота кадров : 25,000 кадров/сек
Цветовое пространство : YUV
Субдискретизация насыщенности : 4:2:0
Битовая глубина : 8 бит
Тип развёртки : Прогрессивная
Бит/(Пиксели*Кадры) : 0.186
Размер потока : 7,11 Гбайт (92%)
Заголовок : Release by N1NT3NDO
Библиотека кодирования : x264 core 135 r2345 f0c1c53
Настройки программы : cabac=1 / ref=4 / deblock=1:-3:-3 / analyse=0x3:0x133 / me=umh / subme=11 / psy=1 / psy_rd=1.00:0.00 / mixed_ref=1 / me_range=32 / chroma_me=1 / trellis=2 / 8x8dct=1 / cqm=0 / deadzone=21,11 / fast_pskip=0 / chroma_qp_offset=-2 / threads=12 / lookahead_threads=1 / sliced_threads=0 / nr=0 / decimate=0 / interlaced=0 / bluray_compat=0 / constrained_intra=0 / bframes=6 / b_pyramid=2 / b_adapt=2 / b_bias=0 / direct=3 / weightb=1 / open_gop=0 / weightp=2 / keyint=250 / keyint_min=25 / scenecut=40 / intra_refresh=0 / rc=2pass / mbtree=0 / bitrate=9625 / ratetol=1.0 / qcomp=0.60 / qpmin=0 / qpmax=69 / qpstep=4 / cplxblur=20.0 / qblur=0.5 / ip_ratio=1.40 / pb_ratio=1.30 / aq=1:0.70
Язык : Russian
Default : Да
Forced : Нет

Аудио
Идентификатор : 2
Формат : AC-3
Формат/Информация : Audio Coding 3
Расширение режима : CM (complete main)
Параметр Endianness формата : Big
Идентификатор кодека : A_AC3
Продолжительность : 1 ч. 48 м.
Вид битрейта : Постоянный
Битрейт : 640 Кбит/сек
Каналы : 6 каналов
Расположение каналов : Front: L C R, Side: L R, LFE
Частота : 48,0 КГц
Битовая глубина : 16 бит
Метод сжатия : С потерями
Размер потока : 495 Мбайт (6%)
Заголовок : Rus
Язык : Russian
Default : Да
Forced : Нет

Меню
00:00:00.000 : :Chapter 01
00:08:32.880 : :Chapter 02
00:19:21.240 : :Chapter 03
00:28:46.560 : :Chapter 04
00:41:21.200 : :Chapter 05
00:50:17.600 : :Chapter 06
00:59:30.880 : :Chapter 07
01:08:02.400 : :Chapter 08
01:14:33.320 : :Chapter 09
01:28:30.840 : :Chapter 10
01:34:35.880 : :Chapter 11
01:43:30.360 : :Chapter 12
x264 [info]: frame I:1141 Avg QP:19.60 size:234569
x264 [info]: frame P:39179 Avg QP:23.00 size: 87110
x264 [info]: frame B:121949 Avg QP:25.07 size: 33779



   Похожие торренты   Торрент   Размер 
В этой теме нет новых непрочитанных сообщений. Гагарин. Первый в космосе (2013) BDRip 1080p от Youtracker

70 | 13

11.46 ГБ

В этой теме нет новых непрочитанных сообщений. Гагарин. Первый в космосе (2013) BDRemux 1080p от Youtracker

4 | 2

20.84 ГБ

В этой теме нет новых непрочитанных сообщений. Гагарин. Первый в космосе (2013) Blu-ray 1080p от Youtracker и HDCLUB

5 | 6

22.05 ГБ

В этой теме нет новых непрочитанных сообщений. Гагарин. Первый в космосе (2013) BDRip-AVC от L

7 | 2

2.89 ГБ

В этой теме нет новых непрочитанных сообщений. Гагарин. Первый в космосе (2013) BDRip-AVC от FREEISLAND

28 | 3

3.21 ГБ

В этой теме нет новых непрочитанных сообщений. Гагарин. Первый в космосе (2013) BDRip от Youtracker | лицензия

11 | 3

744.72 МБ

В этой теме нет новых непрочитанных сообщений. Гагарин. Первый в космосе (2013) BDRip от Youtracker | лицензия

16 | 2

2.16 ГБ




Вы не можете начинать темы
Вы не можете отвечать на сообщения
Вы не можете редактировать свои сообщения
Вы не можете удалять свои сообщения
Вы не можете добавлять вложения

Перейти:  
Для Мосгорсуда, Роскомнадзора и рекламодателей: mosgorsud-torrent[собачка]yandex.ru
 Вход
ppkBB3cker v.2 © 2008-2014 @ PPK
[ Time : 0.021s | 15 Queries | GZIP : Off ]

Торрент трекер RUTOR.IN, Не можете зайти на rutor.org? Какой новый адрес рутор? Какое зеркало рутор? Не работает rutor.org и зеркала? Тогда наш торрент специально для вас. Rutor.in неофициальное зеркало rutor. В случае если у Вас заблокирован rutor или вдруг Вы не можете на него зайти, то Вы без труда сможете скачать бесплатно и без рекламы последние новинки кино, игр, сериалов и прочего у нас, на Rutor.in. Не нужно использовать прокси, чтобы зайти на рутор, достаточно воспользоваться нашим ресурсом. Все новые фильмы, игры, сериалы, книги и музыка за 2013 и 2014 годы через торрент бесплатно. Скачивайте фильмы в хорошем качестве, игры для пк, xbox, playstation без регистрации. У нас вы найдете новые Зарубежные сериалы и Русские сериалы 2013, 2014, 2015 годов. Оставайтесь с нами, качайте любимые фильмы, игры, сериалы, книги и музыку.
cron