img image001 image001 image001 image001 image001 image001 image001 image001 image001 image001 image001 image001 image001 image001 image001

Planets Sun Sun Sun
Статистика раздачи
Автор: Снежана | Размер: 3.21 ГБ | Добавлен: 24 июл 2013
Раздают: 28    Качают: 3
Скачать торрент
Скачать торрент
Описание торрента

СообщениеДобавлено: 24 июл 2013 

#77

Год выпуска: 2013
Страна: Россия
Жанр: Драма, биография, история
Продолжительность: 01:48:11
Перевод: Не требуется
Навигация по главам: Есть

Режиссер: Павел Пархоменко
Продюссер: Олег Капанец, Дмитрий Мурин, Энтони Уоллер
Сценарий: Олег Капанец, Андрей Дмитриев
Композитор: Джордж Каллис
Студия: Kremlin Films

Бюджет: $1 115 400
Релиз на Blu-Ray: 18 июля 2013, «CD Land»
Премьера в мире: 6 июня 2013

В ролях: Ярослав Жалнин - Юрий Гагарин, Михаил Филиппов - академик Королев, Владимир Стеклов - генерал Каманин, Ольга Иванова - Валентина Гагарина, Вадим Мичман - Герман Титов, Даниил Воробьев - Григорий Нелюбов, Надежда Маркина - мать Гагарина, Анна Тимофеевна Гагарина, Виктор Проскурин - отец Гагарина, Алексей Иванович Гагарин, Инга Стрелкова-Оболдина - медсестра, Валерий Афанасьев - лодочник, Евгений Ткачук - старший лейтенант, Анатолий Гущин - Алексей Леонов, Анатолий Отраднов - Андриян Николаев, Сергей Лактюнькин - Валерий Быковский, Сергей Калашников - Павел Попович, Сергей Кагаков - Олег Ивановский, Сергей Тезов - Евгений Карпов, Александр Завьялов - Анатолий Кириллов, Дмитрий Тихонов - Константин Феоктистов

Описание:
Фильм посвящен первым шагам человечества на пути освоения космоса и непосредственно судьбе первого космонавта Ю. А. Гагарина. Основной лейтмотив — борьба за право быть первым: соревнование в первом отряде космонавтов; конкуренция технологий в ракетостроении; противостояние сверхдержав — СССР и США.В первый отряд космонавтов отбирали из трёх тысяч летчиков-истребителей по всей стране. В легендарную двадцатку попали лучшие из лучших. Кто из них полетит первым, не знал никто. На этом пути пришлось бороться не только с земным притяжением...

Исходник:
Качество: BDRip-AVC
Контейнер: MKV
Видео кодек: H.264
Аудио кодек: AC3
Видео: H.264, 1024x576 pix., 3865 kbps, 25.000 fps, 0.262 bits/pix., High@L4.1
Аудио: AC3, 48.0 KHz, 384 Kbps, 6 channels, 16 bits



General
Unique ID : 170566637879200336364662753018267550346 (0x8051F085B9EB6330B08DC0E5A7D7C28A)
Complete name : G:TORRENTBDRip-AVCGagarin.BDRip-AVC.(2013).F-HD.mkv
Format : Matroska
Format version : Version 2
File size : 3.21 GiB
Duration : 1h 48mn
Overall bit rate : 4 249 Kbps
Encoded date : UTC 2013-07-21 14:17:35
Writing application : mkvmerge v6.2.0 ('Promised Land') built on Apr 28 2013 12:22:01
Writing library : libebml v1.3.0 + libmatroska v1.4.0

Video
ID : 1
Format : AVC
Format/Info : Advanced Video Codec
Format profile : High@L4.1
Format settings, CABAC : Yes
Format settings, ReFrames : 11 frames
Codec ID : V_MPEG4/ISO/AVC
Duration : 1h 48mn
Bit rate : 3 865 Kbps
Width : 1 024 pixels
Height : 576 pixels
Display aspect ratio : 16:9
Frame rate mode : Constant
Frame rate : 25.000 fps
Color space : YUV
Chroma subsampling : 4:2:0
Bit depth : 8 bits
Scan type : Progressive
Bits/(Pixel*Frame) : 0.262
Stream size : 2.86 GiB (89%)
Title : F-HD
Writing library : x264 core 136 r2348+704+51 d1baef6 tMod [8-bit@4:2:0 X86_64]
Encoding settings : cabac=1 / ref=11 / deblock=1:-2:-2 / analyse=0x3:0x133 / me=tesa / subme=11 / psy=1 / fade_compensate=0.00 / psy_rd=1.00:0.15 / mixed_ref=1 / me_range=32 / chroma_me=1 / trellis=2 / 8x8dct=1 / cqm=0 / deadzone=21,11 / fast_pskip=0 / chroma_qp_offset=-3 / threads=4 / lookahead_threads=1 / sliced_threads=0 / nr=0 / decimate=1 / interlaced=0 / bluray_compat=0 / constrained_intra=0 / fgo=0 / bframes=9 / b_pyramid=2 / b_adapt=2 / b_bias=0 / direct=2 / weightb=1 / open_gop=1 / weightp=2 / keyint=250 / keyint_min=25 / scenecut=40 / intra_refresh=0 / rc_lookahead=50 / rc=2pass / mbtree=1 / bitrate=3865 / ratetol=1.0 / qcomp=0.60 / qpmin=0:0:0 / qpmax=69:69:69 / qpstep=4 / cplxblur=20.0 / qblur=0.5 / vbv_maxrate=40000 / vbv_bufsize=40000 / nal_hrd=none / ip_ratio=1.40 / aq=1:0.90 / aq-sensitivity=10.00 / aq-factor=1.00:1.00:1.00 / aq2=0 / aq3=0
Language : Russian
Default : Yes
Forced : No

Audio
ID : 2
Format : AC-3
Format/Info : Audio Coding 3
Mode extension : CM (complete main)
Format settings, Endianness : Big
Codec ID : A_AC3
Duration : 1h 48mn
Bit rate mode : Constant
Bit rate : 384 Kbps
Channel(s) : 6 channels
Channel positions : Front: L C R, Side: L R, LFE
Sampling rate : 48.0 KHz
Bit depth : 16 bits
Compression mode : Lossy
Stream size : 297 MiB (9%)
Language : Russian
Default : Yes
Forced : No

Menu
00:00:00.000 : en:00:00:00.000
00:08:32.880 : en:00:08:32.880
00:19:21.240 : en:00:19:21.240
00:28:46.560 : en:00:28:46.560
00:41:21.200 : en:00:41:21.200
00:50:17.600 : en:00:50:17.600
00:59:30.880 : en:00:59:30.880
01:08:02.400 : en:01:08:02.400
01:14:33.320 : en:01:14:33.320
01:28:30.840 : en:01:28:30.840
01:34:35.880 : en:01:34:35.880
01:43:30.360 : en:01:43:30.360

x264 [info]: frame I:1248 Avg QP:15.99 size:117677
x264 [info]: frame P:37200 Avg QP:19.49 size: 38612
x264 [info]: frame B:123821 Avg QP:22.45 size: 12528





Релиз от:



   Похожие торренты   Торрент   Размер 
В этой теме нет новых непрочитанных сообщений. Гагарин. Первый в космосе (2013) BDRip-AVC от L

7 | 2

2.89 ГБ

В этой теме нет новых непрочитанных сообщений. Гагарин. Первый в космосе (2013) BDRip 1080p

86 | 3

7.75 ГБ

В этой теме нет новых непрочитанных сообщений. Гагарин. Первый в космосе (2013) BDRip от HQCLUB | Лицензия

437 | 19

2 ГБ

В этой теме нет новых непрочитанных сообщений. Гагарин. Первый в космосе (2013) BDRip от Youtracker | лицензия

271 | 12

1.46 ГБ

В этой теме нет новых непрочитанных сообщений. Гагарин. Первый в космосе (2013) BDRip-AVC от New-Team | Лицензия

74 | 16

1.45 ГБ

В этой теме нет новых непрочитанных сообщений. Гагарин. Первый в космосе (2013) BDRip от HQ-ViDEO | Лицензия

52 | 2

2.16 ГБ

В этой теме нет новых непрочитанных сообщений. Гагарин. Первый в космосе (2013) BDRip-AVC от Youtracker | лицензия

18 | 4

2.18 ГБ




Вы не можете начинать темы
Вы не можете отвечать на сообщения
Вы не можете редактировать свои сообщения
Вы не можете удалять свои сообщения
Вы не можете добавлять вложения

Перейти:  
Для Мосгорсуда, Роскомнадзора и рекламодателей: mosgorsud-torrent[собачка]yandex.ru
 Вход
ppkBB3cker v.2 © 2008-2014 @ PPK
[ Time : 0.036s | 14 Queries | GZIP : Off ]

Торрент трекер RUTOR.IN, Не можете зайти на rutor.org? Какой новый адрес рутор? Какое зеркало рутор? Не работает rutor.org и зеркала? Тогда наш торрент специально для вас. Rutor.in неофициальное зеркало rutor. В случае если у Вас заблокирован rutor или вдруг Вы не можете на него зайти, то Вы без труда сможете скачать бесплатно и без рекламы последние новинки кино, игр, сериалов и прочего у нас, на Rutor.in. Не нужно использовать прокси, чтобы зайти на рутор, достаточно воспользоваться нашим ресурсом. Все новые фильмы, игры, сериалы, книги и музыка за 2013 и 2014 годы через торрент бесплатно. Скачивайте фильмы в хорошем качестве, игры для пк, xbox, playstation без регистрации. У нас вы найдете новые Зарубежные сериалы и Русские сериалы 2013, 2014, 2015 годов. Оставайтесь с нами, качайте любимые фильмы, игры, сериалы, книги и музыку.