img image001 image001 image001 image001 image001 image001 image001 image001 image001 image001 image001 image001 image001 image001 image001

Planets Sun Sun Sun
Статистика раздачи
Автор: Снежана | Размер: 3.04 ГБ | Добавлен: 02 авг 2013
Раздают: 9    Качают: 6
Скачать торрент
Скачать торрент
Описание торрента

СообщениеДобавлено: 02 авг 2013 

#77

Год выпуска: 2010
Вид спорта: Волейбол
Участники: Россия - Бразилия
Продолжительность: 03:32:35
Комментарий: Профессиональный (одноголосый)
Язык комментариев: Русский, Владимир Стецко
Описание: Волейбол + Награждение

Format : Flash Video
File size : 3.04 GiB
Duration : 3h 32mn
Overall bit rate : 2 048 Kbps
Video
Format : AVC
Format/Info : Advanced Video Codec
Format profile : Baseline@L3.1
Format settings, CABAC : No
Format settings, ReFrames : 1 frame
Duration : 3h 32mn
Bit rate mode : Constant
Bit rate : 2 000 Kbps
Width : 1 024 pixels
Height : 576 pixels
Display aspect ratio : 16:9
Frame rhttp://www.rutor.org/upload.phpate mode : Constant
Frame rate : 25.000 fps
Standard : NTSC
Color space : YUV
Chroma subsampling : 4:2:0
Bit depth : 8 bits
Scan type : Progressive
Bits/(Pixel*Frame) : 0.136
Stream size : 2.84 GiB (93%)
Audio
Format : MPEG Audio
Format version : Version 2
Format profile : Layer 3
Duration : 3h 32mn
Bit rate mode : Constant
Bit rate : 48.0 Kbps
Channel(s) : 1 channel
Sampling rate : 22.05 KHz
Bit depth : 16 bits
Stream size : 73.0 MiB (2%)


Качество: HQStream
Формат: FLV
Видео: MPEG4 Video (H264), 1024x576, 25.000 fps, 2 000 Kbps
Аудио: MPEG Audio Layer 3, mono, 22050Hz, 48kbps




   Похожие торренты   Торрент   Размер 
В этой теме нет новых непрочитанных сообщений. ХХVII Летняя Универсиада в Казани 2013. Волейбол. Женщины. Финал. Россия - Бразилия [15.07] (2013) SATRip

7 | 4

1.62 ГБ

В этой теме нет новых непрочитанных сообщений. ХХVII Летняя Универсиада в Казани 2013. Волейбол. Женщины. Финал. Россия - Бразилия [15.07] (2013) IPTV

1 | 4

3.69 ГБ

В этой теме нет новых непрочитанных сообщений. XXXI Летние Олимпийские Игры. Рио-де-Жанейро (Бразилия). Пляжный волейбол. Женщины. Финал. Германия - Бразилия [17.08] (2016) IPTVRip-AVC

68 | 13

644.67 МБ

В этой теме нет новых непрочитанных сообщений. XXXI Летние Олимпийские Игры. Рио-де-Жанейро (Бразилия). Пляжный волейбол. Женщины. Группа А. 1-й тур. Бразилия - Россия [07.08] (2016) HDTVRip-AVC

27 | 3

518.03 МБ

В этой теме нет новых непрочитанных сообщений. XXXI Летние Олимпийские Игры. Рио-де-Жанейро (Бразилия). Пляжный волейбол. Женщины. 1/4 финала. Бразилия - Россия [14.08] (2016) IPTVRip-AVC

60 | 9

650.19 МБ

В этой теме нет новых непрочитанных сообщений. Пляжный Футбол. Чемпионат Мира. Финал. Россия - Бразилия (2011) IPTVRip

0 | 5

1.1 ГБ

В этой теме нет новых непрочитанных сообщений. XXXI Летние Олимпийские Игры. Рио-де-Жанейро (Бразилия). Пляжный волейбол. Женщины. Группа А. 1-й тур. Бразилия - Россия [07.08] (2016) HDTV 1080i

29 | 15

3.66 ГБ




Вы не можете начинать темы
Вы не можете отвечать на сообщения
Вы не можете редактировать свои сообщения
Вы не можете удалять свои сообщения
Вы не можете добавлять вложения

Перейти:  
Для Мосгорсуда, Роскомнадзора и рекламодателей: mosgorsud-torrent[собачка]yandex.ru
 Вход
ppkBB3cker v.2 © 2008-2014 @ PPK
[ Time : 0.046s | 14 Queries | GZIP : Off ]

Торрент трекер RUTOR.IN, Не можете зайти на rutor.org? Какой новый адрес рутор? Какое зеркало рутор? Не работает rutor.org и зеркала? Тогда наш торрент специально для вас. Rutor.in неофициальное зеркало rutor. В случае если у Вас заблокирован rutor или вдруг Вы не можете на него зайти, то Вы без труда сможете скачать бесплатно и без рекламы последние новинки кино, игр, сериалов и прочего у нас, на Rutor.in. Не нужно использовать прокси, чтобы зайти на рутор, достаточно воспользоваться нашим ресурсом. Все новые фильмы, игры, сериалы, книги и музыка за 2013 и 2014 годы через торрент бесплатно. Скачивайте фильмы в хорошем качестве, игры для пк, xbox, playstation без регистрации. У нас вы найдете новые Зарубежные сериалы и Русские сериалы 2013, 2014, 2015 годов. Оставайтесь с нами, качайте любимые фильмы, игры, сериалы, книги и музыку.