img image001 image001 image001 image001 image001 image001 image001 image001 image001 image001 image001 image001 image001 image001 image001

Planets Sun Sun Sun
Статистика раздачи
Автор: Снежана | Размер: 360.22 МБ | Добавлен: 02 авг 2013
Раздают: 22    Качают: 6
Скачать торрент
Скачать торрент
Описание торрента

СообщениеДобавлено: 02 авг 2013 



Информация о фильме
Название: 100 лучших голов мирового футбола
Год выхода: 2007
Режиссер: Алексей Богачев

О фильме:
Гол – самое ценное в футболе! То событие, ради которого миллионы людей ходят на стадионы. Это вершина стараний футболистов, квинтэссенция игры. А если гол еще и красив, то его исполнение может быть приравнено к произведениям искусства.

В этом фильме собрана уникальная коллекция из 100 лучших голов мирового футбола в исполнении именитых игроков планеты последних десятилетий. Здесь и фантастические проходы Марадоны, и акробатические удары ван Бастена, и феноменальные голы Пеле, Жаирзиньо и Руммениге, и умопомрачительные финты Круиффа.

Голы, предлагаемые Вашему вниманию, были забиты на разных турнирах – от национальных чемпионатов до первенств планеты. Но объединяет их многое – мастерство исполнения, красота эпизода и настоящее эстетическое удовольствие, которое дарят все эти голы любителям футбола!
Страна: Россия
Продолжительность: 00:57:00

Файл
Кодек: Advanced Video Coding
Качество: IPTVRip
Видео: 704 x 416 (1.824) at 25.000 fps/MPEG-4 at 881 Кбит/сек
Звук: AAC at 128 Кбит/сек/2 канала(ов), 44,1 КГц

MediaInfo
Видео
Идентификатор : 1
Формат : AVC
Формат/Информация : Advanced Video Codec
Профиль формата : High@L3.0
Параметр CABAC формата : Да
Параметр ReFrames формата : 3 кадры
Идентификатор кодека : avc1
Идентификатор кодека/Информация : Advanced Video Coding
Продолжительность : 57 м.
Вид битрейта : Переменный
Битрейт : 750 Кбит/сек
Ширина : 704 пикс.
Высота : 416 пикс.
Соотношение сторон : 16:9
Соотношение сторон в оригинале : 16:9
Режим частоты кадров : Постоянный
Частота кадров : 25,000 кадр/сек
Цветовое пространство : YUV
Подвыборка цветности : 4:2:0
Битовая глубина : 8 бит
Тип развёртки : Прогрессивная
Бит/(Пиксели*Кадры) : 0.102
Размер потока : 306 Мбайт (85%)
Библиотека кодирования : x264 core 79
Основные цвета : BT.601-6 525, BT.1358 525, BT.1700 NTSC, SMPTE 170M
Характеристики трансфера : BT.709-5, BT.1361
Коэффициенты матрицы : BT.601-6 525, BT.1358 525, BT.1700 NTSC, SMPTE 170M

Аудио
Идентификатор : 2
Формат : AAC
Формат/Информация : Advanced Audio Codec
Профиль формата : LC
Идентификатор кодека : 40
Продолжительность : 57 м.
Вид битрейта : Переменный
Битрейт : 128 Кбит/сек
Максимальный битрейт : 156 Кбит/сек
Канал(ы) : 2 канала(ов)
Расположение каналов : Front: L R
Частота : 44,1 КГц
Метод сжатия : С потерями
Размер потока : 52,2 Мбайт (14%)
Дата кодирования : UTC 2010-07-30 09:36:08
Дата пометки : UTC 2010-07-30 09:53:34













   Похожие торренты   Торрент   Размер 
В этой теме нет новых непрочитанных сообщений. Курьезы мирового футбола (автоголы и приколы) / Own Goals and gaffs (2003) TVRip

14 | 41

366.2 МБ

В этой теме нет новых непрочитанных сообщений. 100 лучших голов UEFA (1992-2003) TVRip

1 | 1

652.59 МБ

В этой теме нет новых непрочитанных сообщений. Футбол. Топ-100 голов года / Top 100 Goals of the Year (2012) WEBRip

62 | 4

334.77 МБ

В этой теме нет новых непрочитанных сообщений. Футбол. После футбола [08.11] (2015) SATRip

59 | 10

483.49 МБ

В этой теме нет новых непрочитанных сообщений. Футбол. Новости футбола. НТВ+ [27.07] (2013) DVBRip

0 | 1

87.34 МБ

В этой теме нет новых непрочитанных сообщений. Новая волна-2011. День мирового шлягера (2011) IPTVRip от KinoZalSat

0 | 2

1.96 ГБ

В этой теме нет новых непрочитанных сообщений. Футбол. Час Футбола. Трансляция Советский Спорт (2013) WebRip

0 | 1

14.21 ГБ




Вы не можете начинать темы
Вы не можете отвечать на сообщения
Вы не можете редактировать свои сообщения
Вы не можете удалять свои сообщения
Вы не можете добавлять вложения

Перейти:  
Для Мосгорсуда, Роскомнадзора и рекламодателей: mosgorsud-torrent[собачка]yandex.ru
 Вход
ppkBB3cker v.2 © 2008-2014 @ PPK
[ Time : 0.032s | 14 Queries | GZIP : On ]

Торрент трекер RUTOR.IN, Не можете зайти на rutor.org? Какой новый адрес рутор? Какое зеркало рутор? Не работает rutor.org и зеркала? Тогда наш торрент специально для вас. Rutor.in неофициальное зеркало rutor. В случае если у Вас заблокирован rutor или вдруг Вы не можете на него зайти, то Вы без труда сможете скачать бесплатно и без рекламы последние новинки кино, игр, сериалов и прочего у нас, на Rutor.in. Не нужно использовать прокси, чтобы зайти на рутор, достаточно воспользоваться нашим ресурсом. Все новые фильмы, игры, сериалы, книги и музыка за 2013 и 2014 годы через торрент бесплатно. Скачивайте фильмы в хорошем качестве, игры для пк, xbox, playstation без регистрации. У нас вы найдете новые Зарубежные сериалы и Русские сериалы 2013, 2014, 2015 годов. Оставайтесь с нами, качайте любимые фильмы, игры, сериалы, книги и музыку.