img image001 image001 image001 image001 image001 image001 image001 image001 image001 image001 image001 image001 image001 image001 image001

Planets Sun Sun Sun
Статистика раздачи
Автор: Снежана | Размер: 4.07 ГБ | Добавлен: 02 авг 2013
Раздают: 3    Качают: 2
Скачать торрент
Скачать торрент
Описание торрента

СообщениеДобавлено: 02 авг 2013 

Стивен Джеррард: Моя история / Steven Gerrard: My Story



Жанр: Футбол, спорт
Участники: Стивен Джеррард / Steven Gerrard
Год: 2005
Язык комментариев: английский / русский
Перевод: Профессиональный (одноголосый)
Продолжительность: 1:05:47

Описание: В мире совсем немного футболистов, которые оставляют настолько яркий след в истории, что ещё задолго до заката карьеры их можно с полным правом назвать живыми легендами. Стивен Джеррард - один из них. Этот потрясающий футболист добился в жизни всего, о чём мечтал с раннего детства.
Фильм рассказывает о всех этапах жизненного пути Стивена Джеррарда, начиная с его рождения до поднятия над головой Кубка Чемпионов. Вы убедитесь в том что звезда мирового уровня - на самом деле обычный парень, отличающийся от остальных только тем, что всю жизнь упорно трудился ради осуществления своей мечты - стать капитаном "Ливерпуля" и выиграть с командой всё, что возможно.
Вы увидете также все самые красивые голы и прекрасные передачи в его исполнении.

Доп. информация:
Производство компании PITCH. Великобритания.
Автор сценария и режисёр: Д. Спуни.
Режиссёр дубляжа: Алексей Богачёв.
Закадровый текст: Арег Оганесян.
Текст читал: Виктор Винитинский.
Дизайн: Степан Хачатрян.
Исполнительный продюсер: Пол Холленд.
Продюсер: Джон Харрисон.
Продюсер русской версии: Михаил Погосов.

Источник/Качество: DVD5
Формат DVD: PAL
Формат: DVD Video
Стандарт разрешения: 576p
Видео кодек: MPEG2
Аудио кодек: AC3
Видео: 720x576 (16:9), 25 fps, MPEG2 ~9000 kbps avg
Аудио: 48 kHz, AC3 Dolby Digital, 2 ch (stereo), ~224.00 kbps avg

Общее
Полное имя: H:VIDEO_TSVTS_03_1.VOB
Формат: MPEG-PS
Размер файла: 1000 Мбайт
Продолжительность: 16 м.
Режим общего битрейта: Переменный
Общий поток: 8398 Кбит/сек

Видео
Идентификатор: 224 (0xE0)
Формат: MPEG Video
Версия формата: Version 2
Профиль формата: Main@Main
Параметр BVOP формата: Да
Параметр матрицы формата: По умолчанию
Параметр GOP формата: M=3, N=12
Продолжительность: 16 м.
Вид битрейта: Переменный
Битрейт: 8007 Кбит/сек
Максимальный битрейт: 9000 Кбит/сек
Ширина: 720 пикселей
Высота: 576 пикселей
Соотношение сторон: 16:9
Частота кадров: 25,000 кадров/сек
Стандарт вещания: PAL
Цветовое пространство: YUV
Субдискретизация насыщенности: 4:2:0
Битовая глубина: 8 бит
Тип развёртки: Прогрессивная
Метод сжатия: С потерями
Бит/(Пиксели*Кадры): 0.772
Размер потока: 953 Мбайт (95%)

Аудио
Идентификатор: 189 (0xBD)-128 (0x80)
Формат: AC-3
Формат/Информация: Audio Coding 3
Расширение режима: CM (complete main)
Режим смешивания: DVD-Video
Продолжительность: 16 м.
Вид битрейта: Постоянный
Битрейт: 224 Кбит/сек
Каналы: 2 канала
Расположение каналов: Front: L R
Частота: 48,0 КГц
Битовая глубина: 16 бит
Метод сжатия: С потерями
Задержка видео: -80 мс.
Размер потока: 26,7 Мбайт (3%)











   Похожие торренты   Торрент   Размер 
В этой теме нет новых непрочитанных сообщений. Стивен Джеррард: Моя история / Steven Gerrard: My Story (2008) DVDRip от Generalfilm

2 | 2

701.01 МБ

В этой теме нет новых непрочитанных сообщений. 100 голов Стивена Джеррарда за Ливерпуль / 100 Steven Gerrard goals for Liverpool (2008) TVRip

3 | 16

700.04 МБ

В этой теме нет новых непрочитанных сообщений. Величайшие футболисты. Стивен Джеррард / The greatest footballers (2015) HDTV 1080i

84 | 9

1.4 ГБ

В этой теме нет новых непрочитанных сообщений. Я знаю, что мое имя Стивен / I Know My First Name Is Steven (1989) DVDRip-AVC | P

121 | 13

3.57 ГБ

В этой теме нет новых непрочитанных сообщений. Стивен Сигал - Дискография / Steven Seagal (1992-2006) MP3

36 | 4

423.03 МБ

В этой теме нет новых непрочитанных сообщений. Стивен Сигал: Законник / Steven Seagal: Lawman (2009) TVRip

40 | 6

3.03 ГБ

В этой теме нет новых непрочитанных сообщений. Стивен Сигал: Человек закона / Steven Seagal: Lawman [01x01] (2009) SATRip

51 | 2

293.73 МБ




Вы не можете начинать темы
Вы не можете отвечать на сообщения
Вы не можете редактировать свои сообщения
Вы не можете удалять свои сообщения
Вы не можете добавлять вложения

Перейти:  
Для Мосгорсуда, Роскомнадзора и рекламодателей: mosgorsud-torrent[собачка]yandex.ru
 Вход
ppkBB3cker v.2 © 2008-2014 @ PPK
[ Time : 0.028s | 14 Queries | GZIP : Off ]

Торрент трекер RUTOR.IN, Не можете зайти на rutor.org? Какой новый адрес рутор? Какое зеркало рутор? Не работает rutor.org и зеркала? Тогда наш торрент специально для вас. Rutor.in неофициальное зеркало rutor. В случае если у Вас заблокирован rutor или вдруг Вы не можете на него зайти, то Вы без труда сможете скачать бесплатно и без рекламы последние новинки кино, игр, сериалов и прочего у нас, на Rutor.in. Не нужно использовать прокси, чтобы зайти на рутор, достаточно воспользоваться нашим ресурсом. Все новые фильмы, игры, сериалы, книги и музыка за 2013 и 2014 годы через торрент бесплатно. Скачивайте фильмы в хорошем качестве, игры для пк, xbox, playstation без регистрации. У нас вы найдете новые Зарубежные сериалы и Русские сериалы 2013, 2014, 2015 годов. Оставайтесь с нами, качайте любимые фильмы, игры, сериалы, книги и музыку.