img image001 image001 image001 image001 image001 image001 image001 image001 image001 image001 image001 image001 image001 image001 image001

Planets Sun Sun Sun
Статистика раздачи
Автор: Снежана | Размер: 1.45 ГБ | Добавлен: 02 авг 2013
Раздают: 0    Качают: 1
Скачать торрент
Скачать торрент
Описание торрента

СообщениеДобавлено: 02 авг 2013 

#77
Название: Суперкубок России 2011-12 Зенит - Рубин
Год выпуска: 2012
Режиссер / Телекомпания: 1 канал
Язык комментария: Русский (Гусев)

Описание: Первый канал представляет трансляцию игры, открывающей новый футбольный сезон в нашей стране. В матче за Суперкубок России, который пройдет в Самаре, померяются силами чемпион страны санкт-петербургский "Зенит" и обладатель Кубка страны казанский "Рубин".

Качество: IPTVRip
Продолжительность: 01:52:54
Формат: AVI
Видео кодек: XviD
Аудио кодек: MP3
Видео: 704x400 (1.76:1), 25 fps, XviD build 61 ~1700 kbps avg, 0.24 bit/pixel
Аудио: 48 kHz, MPEG Layer 3, 2 ch, ~128.00 kbps avg
Общее
Полное имя : Зенит - Рубин.avi
Формат : AVI
Формат/Информация : Audio Video Interleave
Размер файла : 1,45 Гбайт
Продолжительность : 1 ч. 52 м.
Общий поток : 1835 Кбит/сек
Библиотека кодирования : VirtualDub build 32507/release

Видео
Идентификатор : 0
Формат : MPEG-4 Visual
Профиль формата : Advanced Simple@L5
Параметр BVOP формата : 2
Параметр QPel формата : Нет
Параметр GMC формата : Без точки перехода
Параметр матрицы формата : Default (H.263)
Режим смешивания : Сжатый битовый поток
Идентификатор кодека : XVID
Идентификатор кодека/Подсказка : XviD
Продолжительность : 1 ч. 52 м.
Битрейт : 1697 Кбит/сек
Ширина : 704 пикселя
Высота : 400 пикселей
Соотношение сторон : 16:9
Частота кадров : 25,000 кадров/сек
Цветовое пространство : YUV
Субдискретизация насыщенности : 4:2:0
Битовая глубина : 8 бит
Тип развёртки : Прогрессивная
Метод сжатия : С потерями
Бит/(Пиксели*Кадры) : 0.241
Размер потока : 1,34 Гбайт (92%)
Библиотека кодирования : XviD 64

Аудио
Идентификатор : 1
Формат : MPEG Audio
Версия формата : Version 1
Профиль формата : Layer 3
Режим : Joint stereo
Расширение режима : MS Stereo
Идентификатор кодека : 55
Идентификатор кодека/Подсказка : MP3
Продолжительность : 1 ч. 52 м.
Вид битрейта : Постоянный
Битрейт : 128 Кбит/сек
Каналы : 2 канала
Частота : 48,0 КГц
Метод сжатия : С потерями
Размер потока : 103 Мбайт (7%)
Выравнивание : Разделение по промежуткам
Продолжительность промежутка : 40 мс. (1,00 видеокадр)
Время предзагрузки промежутка : 500 мс.





   Похожие торренты   Торрент   Размер 
В этой теме нет новых непрочитанных сообщений. Футбол. Чемпионат России 2011/12. 42-й тур. Рубин - Зенит (2012) SATRemux

0 | 2

4.82 ГБ

В этой теме нет новых непрочитанных сообщений. Футбол. Чемпионат России 2012-2013. 20-й тур. Рубин (Казань) - Зенит (Санкт-Петербург) (2013) IPTVRip

0 | 2

1.7 ГБ

В этой теме нет новых непрочитанных сообщений. Футбол. Чемпионат России 2011/12. 35-й тур. Динамо (Москва) - Зенит (Санкт-Петербург) (2012) IPTVRip

0 | 1

1.21 ГБ

В этой теме нет новых непрочитанных сообщений. Футбол. Чемпионат России 2014-15. 23-й тур. Зенит (Санкт-Петербург) - Рубин (Казань) [12.04] (2015) HDTVRip 720p | 50 fps

25 | 3

3.7 ГБ

В этой теме нет новых непрочитанных сообщений. Футбол. Чемпионат России 2012-2013. 16-й тур. Динамо (Москва) - Зенит (Санкт-Петербург) (2012) IPTVRip

0 | 2

824.35 МБ

В этой теме нет новых непрочитанных сообщений. Футбол. Кубок России 2012-2013. 1/16 финала. Балтика (Калининград) - Зенит (Санкт-Петербург) (2012) IPTVRip

0 | 2

1.46 ГБ

В этой теме нет новых непрочитанных сообщений. Футбол. Кубок России 2012-2013. 1/8 финала. Мордовия (Саранск) - Зенит (Санкт-Петербург) (2012) IPTVRip

1 | 2

1.37 ГБ




Вы не можете начинать темы
Вы не можете отвечать на сообщения
Вы не можете редактировать свои сообщения
Вы не можете удалять свои сообщения
Вы не можете добавлять вложения

Перейти:  
Для Мосгорсуда, Роскомнадзора и рекламодателей: mosgorsud-torrent[собачка]yandex.ru
 Вход
ppkBB3cker v.2 © 2008-2014 @ PPK
[ Time : 0.022s | 15 Queries | GZIP : Off ]

Торрент трекер RUTOR.IN, Не можете зайти на rutor.org? Какой новый адрес рутор? Какое зеркало рутор? Не работает rutor.org и зеркала? Тогда наш торрент специально для вас. Rutor.in неофициальное зеркало rutor. В случае если у Вас заблокирован rutor или вдруг Вы не можете на него зайти, то Вы без труда сможете скачать бесплатно и без рекламы последние новинки кино, игр, сериалов и прочего у нас, на Rutor.in. Не нужно использовать прокси, чтобы зайти на рутор, достаточно воспользоваться нашим ресурсом. Все новые фильмы, игры, сериалы, книги и музыка за 2013 и 2014 годы через торрент бесплатно. Скачивайте фильмы в хорошем качестве, игры для пк, xbox, playstation без регистрации. У нас вы найдете новые Зарубежные сериалы и Русские сериалы 2013, 2014, 2015 годов. Оставайтесь с нами, качайте любимые фильмы, игры, сериалы, книги и музыку.
cron