img image001 image001 image001 image001 image001 image001 image001 image001 image001 image001 image001 image001 image001 image001 image001

Planets Sun Sun Sun
Статистика раздачи
Автор: Снежана | Размер: 766.02 МБ | Добавлен: 02 авг 2013
Раздают: 8    Качают: 2
Скачать торрент
Скачать торрент
Описание торрента

СообщениеДобавлено: 02 авг 2013 

#77

Название: 20 секунд счастья
Оригинальное название: 20 Seconds Of Joy
Год выхода: 2007
Жанр: Документальный
Вид спорта: Бейсджампинг
Режиссер: Дженс Хоффман
В ролях: Карина Холлеким, Джеб Корлисс

Описание: В 2006 году известная спортсменка Карина Холлеким (Норвегия), одна из самых известных бейс-джамперов и фрирайдеров мира, пережила страшный инцидент. Во время прыжка она получила 25 переломов ног – врачи хотели отнять ногу и сказали, что спортсменка больше никогда не будет ходить…
Эта картина стала своеобразным итогом целого этапа в жизни Карины. За те пять лет, что шла работа над фильмом, спортсменке пришлось выдержать не одно тяжелое испытание. В 2006 году девушка оказалась на волоске от смерти – во время соревнований Red Bull Vertigo у норвежки не открылся парашют. Эту жестокую схватку со смертью запечатлели режиссеры фильма "20 секунд счастья".



Выпущено: F24 Film
Продолжительность: 01:00:21
Перевод: Профессиональный (двухголосый закадровый)

Качество: DVDRip
Формат: AVI
Видео кодек: XviD
Аудио кодек: AC3
Видео: 720х400, (16:9)~1447 kb/s, 25 fps, 0.201 bit/pixel
Аудио: 320 kb/s, 2 ch, 48 khz

Формат : AVI
Формат/Информация : Audio Video Interleave
Размер файла : 766 Мбайт
Продолжительность : 1 ч. 0 м.
Общий поток : 1775 Кбит/сек
Название фильма : 20 Seconds Of Joy 2007
Программа кодирования : VirtualDubMod 1.5.10.2 (build 2540/release)
Библиотека кодирования : VirtualDubMod build 2540/release

Видео
Идентификатор : 0
Формат : MPEG-4 Visual
Профиль формата : Advanced Simple@L5
Параметр BVOP формата : 1
Параметр QPel формата : Нет
Параметр GMC формата : Без точки перехода
Параметр матрицы формата : Выборочная
Идентификатор кодека : XVID
Идентификатор кодека/Подсказка : XviD
Продолжительность : 1 ч. 0 м.
Битрейт : 1447 Кбит/сек
Ширина : 720 пикс.
Высота : 400 пикс.
Соотношение сторон : 16:9
Частота кадров : 25,000 кадр/сек
Цветовое пространство : YUV
Подвыборка цветности : 4:2:0
Битовая глубина : 8 бит
Тип развёртки : Прогрессивная
Метод сжатия : С потерями
Бит/(Пиксели*Кадры) : 0.201
Размер потока : 625 Мбайт (82%)
Библиотека кодирования : XviD 1.2.1 (UTC 2008-12-04)

Аудио
Идентификатор : 1
Формат : AC-3
Формат/Информация : Audio Coding 3
Расширение режима : CM (complete main)
Идентификатор кодека : 2000
Продолжительность : 59 м.
Вид битрейта : Постоянный
Битрейт : 320 Кбит/сек
Каналы : 2 канала
Расположение каналов : Front: L R
Частота : 48,0 КГц
Битовая глубина : 16 бит
Метод сжатия : С потерями
Размер потока : 137 Мбайт (18%)
Выравнивание : Разделение по промежуткам
Продолжительность промежутка : 40 мс. (1,01 видеокадр)
Время предзагрузки промежутка : 500 ms




   Похожие торренты   Торрент   Размер 
В этой теме нет новых непрочитанных сообщений. Угнать за 60 секунд / Gone in 60 Seconds (1974) DVDRip-AVC

36 | 3

1.45 ГБ

В этой теме нет новых непрочитанных сообщений. Угнать за 60 секунд / Gone in 60 Seconds (1974) DVDRip

13 | 2

1.37 ГБ

В этой теме нет новых непрочитанных сообщений. Тридцать секунд над Токио / Thirty Seconds Over Tokyo (1944) DVDRip-AVC

33 | 19

2.1 ГБ

В этой теме нет новых непрочитанных сообщений. Угнать за 60 секунд / Gone in Sixty Seconds (2000) DVDRip от YouTracker | Режиссёрская версия

308 | 14

1.46 ГБ

В этой теме нет новых непрочитанных сообщений. Тридцать секунд над Токио / Thirty Seconds Over Tokyo (1944) DVDRip - Generalfilm

1 | 2

1.46 ГБ

В этой теме нет новых непрочитанных сообщений. 7 секунд / 7 seconds (2005) HDRip

14 | 6

1.75 ГБ

В этой теме нет новых непрочитанных сообщений. 7 секунд / 7 seconds (2005) HDRip-AVC

21 | 9

1.63 ГБ




Вы не можете начинать темы
Вы не можете отвечать на сообщения
Вы не можете редактировать свои сообщения
Вы не можете удалять свои сообщения
Вы не можете добавлять вложения

Перейти:  
Для Мосгорсуда, Роскомнадзора и рекламодателей: mosgorsud-torrent[собачка]yandex.ru
 Вход
ppkBB3cker v.2 © 2008-2014 @ PPK
[ Time : 0.019s | 15 Queries | GZIP : Off ]

Торрент трекер RUTOR.IN, Не можете зайти на rutor.org? Какой новый адрес рутор? Какое зеркало рутор? Не работает rutor.org и зеркала? Тогда наш торрент специально для вас. Rutor.in неофициальное зеркало rutor. В случае если у Вас заблокирован rutor или вдруг Вы не можете на него зайти, то Вы без труда сможете скачать бесплатно и без рекламы последние новинки кино, игр, сериалов и прочего у нас, на Rutor.in. Не нужно использовать прокси, чтобы зайти на рутор, достаточно воспользоваться нашим ресурсом. Все новые фильмы, игры, сериалы, книги и музыка за 2013 и 2014 годы через торрент бесплатно. Скачивайте фильмы в хорошем качестве, игры для пк, xbox, playstation без регистрации. У нас вы найдете новые Зарубежные сериалы и Русские сериалы 2013, 2014, 2015 годов. Оставайтесь с нами, качайте любимые фильмы, игры, сериалы, книги и музыку.
cron