img image001 image001 image001 image001 image001 image001 image001 image001 image001 image001 image001 image001 image001 image001 image001

Planets Sun Sun Sun
Статистика раздачи
Автор: Снежана | Размер: 675.46 МБ | Добавлен: 02 авг 2013
Раздают: 0    Качают: 7
Скачать торрент
Скачать торрент
Описание торрента

СообщениеДобавлено: 02 авг 2013 

#77

Название: Ален Робер. Человек-паук
Оригинальное название: Alain Robert. Spiderman
Год выхода: 2008
Жанр: Документальный, Спорт
Режиссер: Оливье Ван Эль
В ролях: Ален Робер

Описание: 48-летний Ален Робер один из самых знаменитых скалолазов в мире. Многие его рекорды не побиты до сих пор. Смертельный риск, преодоление невозможного, открытие новых горизонтов - вот составляющие жизни этого уникального человека-паука. Он остается маленьким мальчиком, увлечение которого превратилось в философию.

Страна: Франция
Выпущено: Моя планета
Продолжительность: 00:54:21
Перевод: Профессиональный (двухголосый закадровый)

Качество: SATRip
Формат: AVI
Видео кодек: XviD
Аудио кодек: MP3
Видео: XviD, 1599 Кбит/с, 704x400, 25,000 кадр/сек
Аудио: MP3, 2 ch, 128 Кбит/с, 48,0 КГц

Формат : AVI
Формат/Информация : Audio Video Interleave
Размер файла : 675 Мбайт
Продолжительность : 54 м.
Общий поток : 1737 Кбит/сек
Программа кодирования : VirtualDubMod 1.5.10.3 | www.virtualdub-fr.org || (build 2550/release)
Библиотека кодирования : VirtualDubMod build 2550/release

Видео
Идентификатор : 0
Формат : MPEG-4 Visual
Профиль формата : Advanced Simple@L5
Параметр BVOP формата : 2
Параметр QPel формата : Нет
Параметр GMC формата : Без точки перехода
Параметр матрицы формата : Default (H.263)
Идентификатор кодека : XVID
Идентификатор кодека/Подсказка : XviD
Продолжительность : 54 м.
Битрейт : 1599 Кбит/сек
Ширина : 704 пикс.
Высота : 400 пикс.
Соотношение сторон : 16:9
Частота кадров : 25,000 кадр/сек
Цветовое пространство : YUV
Подвыборка цветности : 4:2:0
Битовая глубина : 8 бит
Тип развёртки : Прогрессивная
Метод сжатия : С потерями
Бит/(Пиксели*Кадры) : 0.227
Размер потока : 622 Мбайт (92%)
Библиотека кодирования : XviD 64

Аудио
Идентификатор : 1
Формат : MPEG Audio
Версия формата : Version 1
Профиль формата : Layer 3
Идентификатор кодека : 55
Идентификатор кодека/Подсказка : MP3
Продолжительность : 54 м.
Вид битрейта : Постоянный
Битрейт : 128 Кбит/сек
Каналы : 2 канала
Частота : 48,0 КГц
Метод сжатия : С потерями
Размер потока : 49,8 Мбайт (7%)
Выравнивание : Соединение по промежуткам
Продолжительность промежутка : 40 мс. (1,00 видеокадр)
Время предзагрузки промежутка : 504 ms
Библиотека кодирования : LAME3.98r
Настройки программы : -m s -V 4 -q 0 -lowpass 17 -b 128


Релиз от:



   Похожие торренты   Торрент   Размер 
В этой теме нет новых непрочитанных сообщений. Совершенный Человек-Паук / SpiderMan Unlimited [v1.8.1b] (2014) Android

265 | 13

614.71 МБ

В этой теме нет новых непрочитанных сообщений. Ален Делон - Коллекция ТФ Никитин / Alain Delon Collection (1972-1992) 12x DVD9

0 | 23

79.59 ГБ

В этой теме нет новых непрочитанных сообщений. Мастера Аккордеона - Ален Музычини / Masters of Accordion - Alain Musichini (2007) DVDRip от Brazzass

3 | 1

1.37 ГБ

В этой теме нет новых непрочитанных сообщений. Ален Делон, Уникальный Портрет / Alain Delon, cet inconnu (2015) HDTVRip 720p | Первый Канал

103 | 29

1.6 ГБ

В этой теме нет новых непрочитанных сообщений. Грандиозный Человек-Паук / The Spectacular Spider-Man [S1-2] (2008-2009) DVDRip/SATRip

95 | 21

7.11 ГБ

В этой теме нет новых непрочитанных сообщений. Великий Человек-паук / Совершенный Человек-паук / Ultimate Spider-Man [01x01-12 из 26] (2012) DVDRip от New-Team | D | лицензия

81 | 42

9.2 ГБ

В этой теме нет новых непрочитанных сообщений. Великий Человек-паук / Совершенный Человек-паук / Ultimate Spider-Man [01x01-12 из 26] (2012) 2xDVD9 от New-Team | D | Лицензия

2 | 96

13.38 ГБ




Вы не можете начинать темы
Вы не можете отвечать на сообщения
Вы не можете редактировать свои сообщения
Вы не можете удалять свои сообщения
Вы не можете добавлять вложения

Перейти:  
Для Мосгорсуда, Роскомнадзора и рекламодателей: mosgorsud-torrent[собачка]yandex.ru
 Вход
ppkBB3cker v.2 © 2008-2014 @ PPK
[ Time : 0.037s | 14 Queries | GZIP : Off ]

Торрент трекер RUTOR.IN, Не можете зайти на rutor.org? Какой новый адрес рутор? Какое зеркало рутор? Не работает rutor.org и зеркала? Тогда наш торрент специально для вас. Rutor.in неофициальное зеркало rutor. В случае если у Вас заблокирован rutor или вдруг Вы не можете на него зайти, то Вы без труда сможете скачать бесплатно и без рекламы последние новинки кино, игр, сериалов и прочего у нас, на Rutor.in. Не нужно использовать прокси, чтобы зайти на рутор, достаточно воспользоваться нашим ресурсом. Все новые фильмы, игры, сериалы, книги и музыка за 2013 и 2014 годы через торрент бесплатно. Скачивайте фильмы в хорошем качестве, игры для пк, xbox, playstation без регистрации. У нас вы найдете новые Зарубежные сериалы и Русские сериалы 2013, 2014, 2015 годов. Оставайтесь с нами, качайте любимые фильмы, игры, сериалы, книги и музыку.