img image001 image001 image001 image001 image001 image001 image001 image001 image001 image001 image001 image001 image001 image001 image001 image001

Planets Sun Sun Sun
Статистика раздачи
Автор: Снежана | Размер: 2.47 ГБ | Добавлен: 02 авг 2013
Раздают: 0    Качают: 2
Скачать торрент
Скачать торрент
Описание торрента

СообщениеДобавлено: 02 авг 2013 

#77


Кухня

Название: Кухня
Год выхода: 2008
Жанр: Документальный, Спорт
Режиссер: Павел Карыхалин
В ролях: Андрей Москвин, Артем Теймуров, Петр Ястребков, Александр Мороз,
Александр Брагин, Дмитрий Фесенко, Максим Балаховский, Сергей Тарасов, Дмитрий Миндруль,
Алексей Соболев, Сергей Лапушкин, Shin Campos, Виктор Теймуров

О фильме: «Кухня» — место, где варится настоящий сноубординг!..
Очень качественный фильм о профессиональном сноубординге. Красивая музыка,
профессиональные трюки, смена обстановки. Завораживает и не заставляет
заскучать.



Страна: Россия
Студия: Stereotactic Films
Продолжительность: 00:33:57
Перевод: Не требуется

Качество видео: DVD5
Видео кодек: MPEG-2
Видео: PAL, 720x576 @ 1024x576, 25,000 кадр/сек, ~7700 Kbps
Аудио 1: Русский, AC3, 6 ch, 448 kbps
Аудио 2: Русский, AC3, 2 ch, 192 kbps

Формат : MPEG-PS
Размер файла : 1024 Мбайт
Продолжительность : 20 м.
Общий поток : 7083 Кбит/сек

Видео
Идентификатор : 224 (0xE0)
Формат : MPEG Video
Версия формата : Version 2
Профиль формата : Main@Main
Параметр BVOP формата : Да
Параметр матрицы формата : По умолчанию
Продолжительность : 20 м.
Вид битрейта : Переменный
Битрейт : 6302 Кбит/сек
Номинальный битрейт : 7700 Кбит/сек
Ширина : 720 пикс.
Высота : 576 пикс.
Соотношение сторон : 16:9
Частота кадров : 25,000 кадр/сек
Стандарт вещания : PAL
Цветовое пространство : YUV
Подвыборка цветности : 4:2:0
Битовая глубина : 8 бит
Тип развёртки : Прогрессивная
Метод сжатия : С потерями
Бит/(Пиксели*Кадры) : 0.608
Размер потока : 911 Мбайт (89%)

Аудио #1
Идентификатор : 189 (0xBD)-128 (0x80)
Формат : AC-3
Формат/Информация : Audio Coding 3
Расширение режима : CM (complete main)
Режим смешивания : DVD-Video
Продолжительность : 20 м.
Вид битрейта : Постоянный
Битрейт : 448 Кбит/сек
Каналы : 6 каналов
Расположение каналов : Front: L C R, Side: L R, LFE
Частота : 48,0 КГц
Битовая глубина : 16 бит
Метод сжатия : С потерями
Размер потока : 64,7 Мбайт (6%)

Аудио #2
Идентификатор : 189 (0xBD)-129 (0x81)
Формат : AC-3
Формат/Информация : Audio Coding 3
Расширение режима : CM (complete main)
Режим смешивания : DVD-Video
Продолжительность : 20 м.
Вид битрейта : Постоянный
Битрейт : 192 Кбит/сек
Каналы : 2 канала
Расположение каналов : Front: L R
Частота : 48,0 КГц
Битовая глубина : 16 бит
Метод сжатия : С потерями
Размер потока : 27,7 Мбайт (3%)



   Похожие торренты   Торрент   Размер 
В этой теме нет новых непрочитанных сообщений. XXIII Зимние Олимпийские Игры 2018 / Сноубординг / Хафпайп / Мужчины / Квалификация / Telesport HD [Сноубординг, 13.02.2018, WEB-DL (720р), RU]

2 | 1

5.82 ГБ

В этой теме нет новых непрочитанных сообщений. XXIII Зимние Олимпийские Игры 2018 / Сноубординг / Мужчины / Биг-эйр / Финал / Telesport HD [Сноубординг, 24.02.2018, WEB-DL (720р), RU]

0 | 0

4.57 ГБ

В этой теме нет новых непрочитанных сообщений. XXIII Зимние Олимпийские Игры 2018 / Сноубординг / Хафпайп / Мужчины / Финал / Матч! Игра HD [Сноубординг, 14.02.2018, HDTV (1080i), RU]

0 | 0

2.97 ГБ

В этой теме нет новых непрочитанных сообщений. XXIII Зимние Олимпийские Игры 2018 / Сноубординг / Женщины. Мужчины / Параллельный гигантский слалом / Telesport HD [Сноубординг, 24.02.2018, WEB-DL (720р), RU]

0 | 0

9.69 ГБ

В этой теме нет новых непрочитанных сообщений. Сноубординг. Вот оно - это всё + Бонус / Snowboarding. That's It, That's All (2008) BDRip 720p | Sub

36 | 6

5.27 ГБ

В этой теме нет новых непрочитанных сообщений. Кухня в Париже (2014) DVD5 от New-Team | Лицензия

88 | 9

4.14 ГБ

В этой теме нет новых непрочитанных сообщений. Адская кухня / Paradise Alley (1978) DVD5 от Youtracker | P | Сжатый

2 | 3

4.37 ГБ




Вы не можете начинать темы
Вы не можете отвечать на сообщения
Вы не можете редактировать свои сообщения
Вы не можете удалять свои сообщения
Вы не можете добавлять вложения

Перейти:  
 Вход
ppkBB3cker v.2 © 2008-2014 @ PPK
[ Time : 1.195s | 15 Queries | GZIP : Off ]

cron