img image001 image001 image001 image001 image001 image001 image001 image001 image001 image001 image001 image001 image001 image001 image001

Planets Sun Sun Sun
Статистика раздачи
Автор: Снежана | Размер: 4.85 ГБ | Добавлен: 02 авг 2013
Раздают: 0    Качают: 2
Скачать торрент
Скачать торрент
Описание торрента

СообщениеДобавлено: 02 авг 2013 

#77


Кубок мира. 2-й этап. Хохфильцен (Австрия). Мужчины. Спринт. 10 км

Дата: 07.12.2012
Вид спорта: Биатлон
Продолжительность: 01:19:01
Языки комментариев: Русский (Сергей Курдюков)

Автор записи: SLuMeP

Канал:

Качество: HDTV
Формат: TS
Видео: H264; 1920x1080 (16:9); 25.000 fps; 8000 kbps
Аудио: RUS; MP2; 48 KHz; 192 kbps; Stereo; 2 channels

В трансляции присутсвуют некоторые зависания картинки ...
General
ID : 1
Complete name : D:Хохфильцен. Мужчины. Спринт. 10 км.ts
Format : MPEG-TS
File size : 4.85 GiB
Duration : 1h 19mn
Overall bit rate : 8 710 Kbps
Maximum Overall bit rate : 35.5 Mbps

Video
ID : 4113 (0x1011)
Menu ID : 1 (0x1)
Format : AVC
Format/Info : Advanced Video Codec
Format profile : High@L4.0
Format settings, CABAC : Yes
Format settings, ReFrames : 3 frames
Format settings, GOP : M=1, N=42
Codec ID : 27
Duration : 1h 19mn
Bit rate mode : Variable
Bit rate : 8 086 Kbps
Maximum bit rate : 40.0 Mbps
Width : 1 920 pixels
Height : 1 080 pixels
Display aspect ratio : 16:9
Frame rate : 25.000 fps
Standard : Component
Color space : YUV
Chroma subsampling : 4:2:0
Bit depth : 8 bits
Scan type : Interlaced
Scan order : Top Field First
Bits/(Pixel*Frame) : 0.156
Stream size : 4.50 GiB (93%)
Color primaries : BT.709-5, BT.1361, IEC 61966-2-4, SMPTE RP177
Transfer characteristics : BT.709-5, BT.1361
Matrix coefficients : BT.709-5, BT.1361, IEC 61966-2-4 709, SMPTE RP177

Audio
ID : 4352 (0x1100)
Menu ID : 1 (0x1)
Format : MPEG Audio
Format version : Version 1
Format profile : Layer 2
Codec ID : 4
Duration : 1h 19mn
Bit rate mode : Constant
Bit rate : 192 Kbps
Channel(s) : 2 channels
Sampling rate : 48.0 KHz
Stream size : 109 MiB (2%)
Language : Russian





   Похожие торренты   Торрент   Размер 
В этой теме нет новых непрочитанных сообщений. Биатлон. Кубок мира 2013/14. 2-й этап. Хохфильцен (Австрия). Спринт 10 км. Мужчины [Eurosport HD] [06.12] (2013) HDTV 1080i

0 | 1

5.92 ГБ

В этой теме нет новых непрочитанных сообщений. Биатлон. Кубок мира 2013/14. 2-й этап. Хохфильцен (Австрия). Спринт 7,5 км. Женщины [Eurosport HD] [06.12] (2013) HDTV 1080i

0 | 1

4.9 ГБ

В этой теме нет новых непрочитанных сообщений. Биатлон. Кубок Мира 2014-15. 2-й этап. Хохфильцен (Австрия) Мужчины. Спринт 10 км (2014) HDTV 1080i

53 | 9

6.92 ГБ

В этой теме нет новых непрочитанных сообщений. Биатлон. Кубок Мира 2015-16. 2-й этап. Хохфильцен (Австрия). Мужчины. Спринт 10 км [11.12] (2015) HDTV 1080i

28 | 3

5.89 ГБ

В этой теме нет новых непрочитанных сообщений. Биатлон. Кубок Мира 2012-13. 2-й этап. Хохфильцен (Австрия). Мужчины. Спринт. 10 км [Россия 2] [07.12] (2012) SATRip

1 | 2

1.51 ГБ

В этой теме нет новых непрочитанных сообщений. Биатлон. Кубок Мира 2012-13. 2-й этап. Хохфильцен (Австрия). Мужчины. Спринт. 10 км [Спорт 1 HD] [07.12] (2012) HDTVRip 720р

0 | 2

3.11 ГБ

В этой теме нет новых непрочитанных сообщений. Биатлон. Кубок мира 2013/14. 2 этап. Эстафета. Мужчины. Хохфильцен (Австрия) [Eurosport HD] [07.12] (2013) HDTV 1080i

0 | 1

5.78 ГБ




Вы не можете начинать темы
Вы не можете отвечать на сообщения
Вы не можете редактировать свои сообщения
Вы не можете удалять свои сообщения
Вы не можете добавлять вложения

Перейти:  
Для Мосгорсуда, Роскомнадзора и рекламодателей: mosgorsud-torrent[собачка]yandex.ru
 Вход
ppkBB3cker v.2 © 2008-2014 @ PPK
[ Time : 0.022s | 14 Queries | GZIP : On ]

Торрент трекер RUTOR.IN, Не можете зайти на rutor.org? Какой новый адрес рутор? Какое зеркало рутор? Не работает rutor.org и зеркала? Тогда наш торрент специально для вас. Rutor.in неофициальное зеркало rutor. В случае если у Вас заблокирован rutor или вдруг Вы не можете на него зайти, то Вы без труда сможете скачать бесплатно и без рекламы последние новинки кино, игр, сериалов и прочего у нас, на Rutor.in. Не нужно использовать прокси, чтобы зайти на рутор, достаточно воспользоваться нашим ресурсом. Все новые фильмы, игры, сериалы, книги и музыка за 2013 и 2014 годы через торрент бесплатно. Скачивайте фильмы в хорошем качестве, игры для пк, xbox, playstation без регистрации. У нас вы найдете новые Зарубежные сериалы и Русские сериалы 2013, 2014, 2015 годов. Оставайтесь с нами, качайте любимые фильмы, игры, сериалы, книги и музыку.