img image001 image001 image001 image001 image001 image001 image001 image001 image001 image001 image001 image001 image001 image001 image001

Planets Sun Sun Sun
Статистика раздачи
Автор: Снежана | Размер: 5.1 ГБ | Добавлен: 02 авг 2013
Раздают: 0    Качают: 2
Скачать торрент
Скачать торрент
Описание торрента

СообщениеДобавлено: 02 авг 2013 

#77


Кубок мира. 2-й этап. Хохфильцен (Австрия). Мужская эстафета 4x7.5 км

Вид спорта: Биатлон
Участники: Все
Дата/Год выпуска: 09.12.12
Язык комментариев: русский ( Андрей Романов)
Канал: Eurosport HD

Автор записи: SashaR.
Качество: DVB-S2 Remux
Формат видео: TS
Видео: AVC, 1920x1080, 16:9, 8 323 Kbps, 25 fps
Аудио: MP2, 192 Kbps, 48.0 kHz, 2 channels

01:21:31




D:Биатлон. Кубок мира 2012-2013�9.12.2012.Эстафета 4х7.5 км.Муж.ts
General #6
ID : 6 (0x6)
Complete name : D:Биатлон. Кубок мира 2012-2013�9.12.2012.Эстафета 4х7.5 км.Муж.ts
Format : MPEG-TS
File size : 5.10 GiB
Duration : 1h 21mn
Overall bit rate : 8 960 Kbps
Video #324
ID : 324 (0x144)
Menu ID : 12104 (0x2F48)
Format : AVC
Format/Info : Advanced Video Codec
Format profile : High@L4.0
Format settings, CABAC : Yes
Format settings, ReFrames : 3 frames
Format settings, GOP : M=4, N=28
Codec ID : 27
Duration : 1h 21mn
Bit rate : 8 323 Kbps
Width : 1 920 pixels
Height : 1 080 pixels
Display aspect ratio : 16:9
Frame rate : 25.000 fps
Standard : Component
Color space : YUV
Chroma subsampling : 4:2:0
Bit depth : 8 bits
Scan type : Interlaced
Scan order : Top Field First
Bits/(Pixel*Frame) : 0.161
Stream size : 4.74 GiB (93%)
Color primaries : BT.709-5, BT.1361, IEC 61966-2-4, SMPTE RP177
Transfer characteristics : BT.709-5, BT.1361
Matrix coefficients : BT.709-5, BT.1361, IEC 61966-2-4 709, SMPTE RP177
Audio #404
ID : 404 (0x194)
Menu ID : 12104 (0x2F48)
Format : MPEG Audio
Format version : Version 1
Format profile : Layer 2
Codec ID : 4
Duration : 1h 21mn
Bit rate mode : Constant
Bit rate : 192 Kbps
Channel(s) : 2 channels
Sampling rate : 48.0 KHz
Compression mode : Lossy
Delay relative to video : 17ms
Stream size : 112 MiB (2%)
Language : Russian
Language, more info : Clean effects





   Похожие торренты   Торрент   Размер 
В этой теме нет новых непрочитанных сообщений. Биатлон. Кубок Мира 2012-13. 2-й этап. Хохфильцен (Австрия). Женщины. Эстафета 4x6 км [Eurosport HD] [09.12] (2012) DVBRemux 1080i

0 | 3

4.07 ГБ

В этой теме нет новых непрочитанных сообщений. Биатлон. Кубок Мира 2012-13. 2-й этап. Хохфильцен (Австрия). Мужская эстафета 4x7.5 км [Россия 2] [09.12] (2012) SATRip

0 | 2

1.05 ГБ

В этой теме нет новых непрочитанных сообщений. Биатлон. Кубок Мира 2012-13. 2-й этап. Хохфильцен (Австрия). Мужчины. Спринт. 10 км [Eurosport HD] [07.12] (2012) HDTV 1080i

0 | 2

4.85 ГБ

В этой теме нет новых непрочитанных сообщений. Биатлон. Кубок мира 2013/14. 2 этап. Эстафета. Мужчины. Хохфильцен (Австрия) [Eurosport HD] [07.12] (2013) HDTV 1080i

0 | 1

5.78 ГБ

В этой теме нет новых непрочитанных сообщений. Биатлон. Кубок мира 2013/14. 2 этап. Эстафета. Женщины. Хохфильцен (Австрия) [Eurosport HD] [07.12] (2013) HDTV 1080i

0 | 1

6.09 ГБ

В этой теме нет новых непрочитанных сообщений. Биатлон. Кубок Мира 2012-13. 2-й этап. Хохфильцен (Австрия). Женщины. Эстафета 4x6 км [Россия 2] [09.12] (2012) SATRip

1 | 33

977.01 МБ

В этой теме нет новых непрочитанных сообщений. Биатлон. Кубок мира 2011/2012. 2-й этап. Мужчины. Эстафета. Хохфильцен. Австрия (2011) SATRip

0 | 2

1.2 ГБ




Вы не можете начинать темы
Вы не можете отвечать на сообщения
Вы не можете редактировать свои сообщения
Вы не можете удалять свои сообщения
Вы не можете добавлять вложения

Перейти:  
Для Мосгорсуда, Роскомнадзора и рекламодателей: mosgorsud-torrent[собачка]yandex.ru
 Вход
ppkBB3cker v.2 © 2008-2014 @ PPK
[ Time : 0.713s | 15 Queries | GZIP : On ]

Торрент трекер RUTOR.IN, Не можете зайти на rutor.org? Какой новый адрес рутор? Какое зеркало рутор? Не работает rutor.org и зеркала? Тогда наш торрент специально для вас. Rutor.in неофициальное зеркало rutor. В случае если у Вас заблокирован rutor или вдруг Вы не можете на него зайти, то Вы без труда сможете скачать бесплатно и без рекламы последние новинки кино, игр, сериалов и прочего у нас, на Rutor.in. Не нужно использовать прокси, чтобы зайти на рутор, достаточно воспользоваться нашим ресурсом. Все новые фильмы, игры, сериалы, книги и музыка за 2013 и 2014 годы через торрент бесплатно. Скачивайте фильмы в хорошем качестве, игры для пк, xbox, playstation без регистрации. У нас вы найдете новые Зарубежные сериалы и Русские сериалы 2013, 2014, 2015 годов. Оставайтесь с нами, качайте любимые фильмы, игры, сериалы, книги и музыку.
cron