img image001 image001 image001 image001 image001 image001 image001 image001 image001 image001 image001 image001 image001 image001 image001

Planets Sun Sun Sun
Статистика раздачи
Автор: Снежана | Размер: 2.91 ГБ | Добавлен: 03 авг 2013
Раздают: 0    Качают: 1
Скачать торрент
Скачать торрент
Описание торрента

СообщениеДобавлено: 03 авг 2013 

#77


Кубок мира. 3-й этап. Поклюка (Словения). Мужчины. Масс - старт

Оригинальное название: Биатлон. Кубок мира 2012-2013. Этап 3 (Поклюка, Словения). Мужчины. Масс - старт
Дата: 16.12.2012
Вид спорта: Биатлон
Продолжительность: 00:45:06
Языки комментариев: Русский (Сергей Курдюков)

Автор записи: SLuMeP

Канал:

Качество: HDTV
Формат: TS
Видео: H264; 1920x1080 (16:9); 25.000 fps; 8600 kbps
Аудио: RUS; MP2; 48 KHz; 192 kbps; Stereo; 2 channels

В трансляции присутсвуют некоторые зависания картинки ...
General
ID : 1
Complete name : D:Поклюка. Мужчины. Масс старт 15 км.ts
Format : MPEG-TS
File size : 2.91 GiB
Duration : 45mn 6s
Overall bit rate : 9 242 Kbps
Maximum Overall bit rate : 35.5 Mbps

Video
ID : 4113 (0x1011)
Menu ID : 1 (0x1)
Format : AVC
Format/Info : Advanced Video Codec
Format profile : High@L4.0
Format settings, CABAC : Yes
Format settings, ReFrames : 3 frames
Codec ID : 27
Duration : 45mn 6s
Bit rate mode : Variable
Bit rate : 8 592 Kbps
Maximum bit rate : 40.0 Mbps
Width : 1 920 pixels
Height : 1 080 pixels
Display aspect ratio : 16:9
Frame rate : 25.000 fps
Standard : Component
Color space : YUV
Chroma subsampling : 4:2:0
Bit depth : 8 bits
Scan type : Interlaced
Scan order : Top Field First
Bits/(Pixel*Frame) : 0.166
Stream size : 2.71 GiB (93%)
Color primaries : BT.709-5, BT.1361, IEC 61966-2-4, SMPTE RP177
Transfer characteristics : BT.709-5, BT.1361
Matrix coefficients : BT.709-5, BT.1361, IEC 61966-2-4 709, SMPTE RP177

Audio
ID : 4352 (0x1100)
Menu ID : 1 (0x1)
Format : MPEG Audio
Format version : Version 1
Format profile : Layer 2
Codec ID : 4
Duration : 45mn 6s
Bit rate mode : Constant
Bit rate : 192 Kbps
Channel(s) : 2 channels
Sampling rate : 48.0 KHz
Stream size : 62.0 MiB (2%)
Language : Russian





   Похожие торренты   Торрент   Размер 
В этой теме нет новых непрочитанных сообщений. Биатлон. Кубок Мира 2014-15. 3-й этап. Поклюка (Словения). Мужчины. Масс-старт 15 км [Eurosport HD] (2014) HDTV 1080i

39 | 2

2.61 ГБ

В этой теме нет новых непрочитанных сообщений. Биатлон. Кубок Мира 2012-13. 3-й этап. Поклюка (Словения). Мужчины. Масс - старт [Россия 2] [16.12] (2012) SATRip

0 | 1

854.85 МБ

В этой теме нет новых непрочитанных сообщений. Биатлон. Кубок Мира 2014-15. 3-й этап. Поклюка (Словения). Мужчины. Масс-старт 15 км (2014) HDTV 1080i

16 | 3

9.21 ГБ

В этой теме нет новых непрочитанных сообщений. Биатлон. Кубок Мира 2015-16. 3-й этап. Поклюка (Словения). Мужчины. Масс-старт 15 км [20.12] (2015) HDTV 1080i

42 | 6

4.27 ГБ

В этой теме нет новых непрочитанных сообщений. Биатлон. Кубок Мира 2012-13. 3-й этап. Поклюка (Словения). Мужчины. Масс - старт [Спорт 1] [16.12] (2012) HDTVRip 720p

0 | 1

1.08 ГБ

В этой теме нет новых непрочитанных сообщений. Биатлон. Кубок Мира 2012-13. 3-й этап. Поклюка (Словения). Мужчины. Гонка преследования 12.5 км [Eurosport HD] [15.12] (2012) HDTV 1080i

0 | 1

2.75 ГБ

В этой теме нет новых непрочитанных сообщений. Биатлон. Кубок Мира 2014-15. 3-й этап. Поклюка (Словения). Мужчины. Масс-старт 15 км [Eurosport HD] (2014) HDTVRip

37 | 2

492.83 МБ




Вы не можете начинать темы
Вы не можете отвечать на сообщения
Вы не можете редактировать свои сообщения
Вы не можете удалять свои сообщения
Вы не можете добавлять вложения

Перейти:  
Для Мосгорсуда, Роскомнадзора и рекламодателей: mosgorsud-torrent[собачка]yandex.ru
 Вход
ppkBB3cker v.2 © 2008-2014 @ PPK
[ Time : 0.033s | 14 Queries | GZIP : Off ]
CGP output time : 0.042s | 5 Queries | GZIP : Off

Торрент трекер RUTOR.IN, Не можете зайти на rutor.org? Какой новый адрес рутор? Какое зеркало рутор? Не работает rutor.org и зеркала? Тогда наш торрент специально для вас. Rutor.in неофициальное зеркало rutor. В случае если у Вас заблокирован rutor или вдруг Вы не можете на него зайти, то Вы без труда сможете скачать бесплатно и без рекламы последние новинки кино, игр, сериалов и прочего у нас, на Rutor.in. Не нужно использовать прокси, чтобы зайти на рутор, достаточно воспользоваться нашим ресурсом. Все новые фильмы, игры, сериалы, книги и музыка за 2013 и 2014 годы через торрент бесплатно. Скачивайте фильмы в хорошем качестве, игры для пк, xbox, playstation без регистрации. У нас вы найдете новые Зарубежные сериалы и Русские сериалы 2013, 2014, 2015 годов. Оставайтесь с нами, качайте любимые фильмы, игры, сериалы, книги и музыку.