img image001 image001 image001 image001 image001 image001 image001 image001 image001 image001 image001 image001 image001 image001 image001

Planets Sun Sun Sun
Статистика раздачи
Автор: Снежана | Размер: 695.4 МБ | Добавлен: 02 авг 2013
Раздают: 0    Качают: 1
Скачать торрент
Скачать торрент
Описание торрента

СообщениеДобавлено: 02 авг 2013 

#77

Продолжительность: 00:50:16
Год Выпуска: 18.12.2012
Вид Спорта: Футбол
Комментарий: Роман Нагучев
Язык Комментария: Русский (профессиональный одноголосый)

Описание: Чемпионат Испании 2012-13 / 16-й тур / Обзор Тура / НТВ+
Качество: HDTVRip
Формат: AVI
Видео Кодек: XviD
Аудио Кодек: MP3
Видео: 720x400 (16/9), 25,000fps, 1800 Kbps
Аудио: 128 Kbps, 48 KHz, 2 channels

Формат : AVI
Формат/Информация : Audio Video Interleave
Размер файла : 695 Мбайт
Продолжительность : 50 м.
Общий поток : 1934 Кбит/сек
Библиотека кодирования : TMPGEnc 4.0 XPress Version. 4.7.7.307

Видео
Идентификатор : 0
Формат : MPEG-4 Visual
Профиль формата : Advanced Simple@L5
Параметр BVOP формата : 2
Параметр QPel формата : Нет
Параметр GMC формата : Без точки перехода
Параметр матрицы формата : Default (H.263)
Режим смешивания : Сжатый битовый поток
Идентификатор кодека : XVID
Идентификатор кодека/Подсказка : XviD
Продолжительность : 50 м.
Битрейт : 1798 Кбит/сек
Ширина : 720 пикс.
Высота : 400 пикс.
Соотношение сторон : 16:9
Частота кадров : 25,000 кадр/сек
Цветовое пространство : YUV
Подвыборка цветности : 4:2:0
Битовая глубина : 8 бит
Тип развёртки : Прогрессивная
Метод сжатия : С потерями
Бит/(Пиксели*Кадры) : 0.250
Размер потока : 647 Мбайт (93%)
Библиотека кодирования : XviD 73

Аудио
Идентификатор : 1
Формат : MPEG Audio
Версия формата : Version 1
Профиль формата : Layer 3
Режим : Joint stereo
Идентификатор кодека : 55
Идентификатор кодека/Подсказка : MP3
Продолжительность : 50 м.
Вид битрейта : Постоянный
Битрейт : 128 Кбит/сек
Каналы : 2 канала
Частота : 48,0 КГц
Метод сжатия : С потерями
Размер потока : 46,0 Мбайт (7%)
Выравнивание : Разделение по промежуткам
Продолжительность промежутка : 250 мс. (6,25 видеокадров)
Время предзагрузки промежутка : 228 ms





   Похожие торренты   Торрент   Размер 
В этой теме нет новых непрочитанных сообщений. Футбол. Чемпионат Испании 2012-13. 36-й тур. Обзор матчей (2013) HDTVRip

0 | 1

647.52 МБ

В этой теме нет новых непрочитанных сообщений. Футбол. Чемпионат Испании 2012-13. 37-й тур. Обзор матчей (2013) HDTVRip

0 | 1

741.81 МБ

В этой теме нет новых непрочитанных сообщений. Футбол. Чемпионат Испании 2012-13. 27-й тур. Обзор матчей (2013) HDTVRip

0 | 1

602.22 МБ

В этой теме нет новых непрочитанных сообщений. Футбол. Чемпионат Испании 2012-13. 28-й тур. Обзор матчей (2013) HDTVRip

0 | 1

683.63 МБ

В этой теме нет новых непрочитанных сообщений. Футбол. Чемпионат Испании 2012-13. 32-й тур. Обзор матчей (2013) HDTVRip

1 | 0

570.13 МБ

В этой теме нет новых непрочитанных сообщений. Футбол. Чемпионат Испании 2012-13. 37-й тур. Обзор матчей (2013) HDTVRip 720p

0 | 1

1.35 ГБ

В этой теме нет новых непрочитанных сообщений. Футбол. Чемпионат Испании 2012-13. 35-й тур. Обзор матчей (2013) HDTVRip 720p

0 | 1

1.08 ГБ




Вы не можете начинать темы
Вы не можете отвечать на сообщения
Вы не можете редактировать свои сообщения
Вы не можете удалять свои сообщения
Вы не можете добавлять вложения

Перейти:  
Для Мосгорсуда, Роскомнадзора и рекламодателей: mosgorsud-torrent[собачка]yandex.ru
 Вход
ppkBB3cker v.2 © 2008-2014 @ PPK
[ Time : 0.024s | 15 Queries | GZIP : Off ]

cron