img image001 image001 image001 image001 image001 image001 image001 image001 image001 image001 image001 image001 image001 image001 image001

Planets Sun Sun Sun
Статистика раздачи
Автор: Снежана | Размер: 8.46 ГБ | Добавлен: 02 авг 2013
Раздают: 0    Качают: 3
Скачать торрент
Скачать торрент
Описание торрента

СообщениеДобавлено: 02 авг 2013 

#77

Название: Чемпионат Мира на короткой воде 2012 / 11th FINA World Swimming Championships
Дата эфира: 12-16.12.2012 г.
Комментарий: профессиональный
Язык комментариев: русский
Телеканал:
Автор записи и рипа: x_man000

Описание:
День 1. Основные заплывы. 2:17:07. Комментаторы: Андрей Симонов, Анастасия Чаун
День 2. Основные заплывы. 2:12:01. Комментаторы: Андрей Симонов, Евгений Коротышкин
День 3. Основные заплывы. 2:22:48. Комментаторы: Алексей Осин, Роман Егоров
День 4. Основные заплывы. 1:48:22. Комментаторы: Андрей Симонов, Анастасия Чаун
День 5. Основные заплывы. 2:28:43. Комментатор: Алексей Осин

Качество: IPTVRip
Формат: AVI
Видео кодек: XviD
Аудио кодек: MP3
Видео: XviD MPEG-4, 704x448 (1.57:1), 25 fps, ~ 1700 kbps avg, 0.22 bit/pixel
Аудио: MPEG Layer 3, 48 kHz, 1 ch, 96.00-112.00 kbps avg

Формат : AVI
Формат/Информация : Audio Video Interleave
Размер файла : 1,89 Гбайт
Продолжительность : 2 ч. 28 м.
Общий поток : 1821 Кбит/сек
Библиотека кодирования : VirtualDub build 33815/release

Видео
Идентификатор : 0
Формат : MPEG-4 Visual
Профиль формата : Advanced Simple@L5
Параметр BVOP формата : 2
Параметр QPel формата : Нет
Параметр GMC формата : Без точки перехода
Параметр матрицы формата : Default (H.263)
Режим смешивания : Сжатый битовый поток
Идентификатор кодека : XVID
Идентификатор кодека/Подсказка : XviD
Продолжительность : 2 ч. 28 м.
Битрейт : 1699 Кбит/сек
Ширина : 704 пикс.
Высота : 448 пикс.
Соотношение сторон : 1,571
Частота кадров : 25,000 кадр/сек
Цветовое пространство : YUV
Подвыборка цветности : 4:2:0
Битовая глубина : 8 бит
Тип развёртки : Прогрессивная
Метод сжатия : С потерями
Бит/(Пиксели*Кадры) : 0.216
Размер потока : 1,77 Гбайт (93%)
Библиотека кодирования : XviD 1.2.1 (UTC 2008-12-04)

Аудио
Идентификатор : 1
Формат : MPEG Audio
Версия формата : Version 1
Профиль формата : Layer 3
Режим : Joint stereo
Расширение режима : MS Stereo
Идентификатор кодека : 55
Идентификатор кодека/Подсказка : MP3
Продолжительность : 2 ч. 28 м.
Вид битрейта : Постоянный
Битрейт : 112 Кбит/сек
Каналы : 2 канала
Частота : 48,0 КГц
Метод сжатия : С потерями
Размер потока : 119 Мбайт (6%)
Выравнивание : Разделение по промежуткам
Продолжительность промежутка : 40 мс. (1,00 видеокадр)
Время предзагрузки промежутка : 500 ms








   Похожие торренты   Торрент   Размер 
В этой теме нет новых непрочитанных сообщений. Плавание. Чемпионат мира на короткой воде 2012. Стамбул. День 2. Утро (2012) IPTVRip

0 | 2

2.22 ГБ

В этой теме нет новых непрочитанных сообщений. Плавание. Чемпионат мира на короткой воде 2012. Стамбул. День 2. Вечер (2012) IPTVRip

0 | 5

1.22 ГБ

В этой теме нет новых непрочитанных сообщений. Плавание. Чемпионат мира на короткой воде 2012. Стамбул. День 1. Утро (2012) IPTVRip

0 | 2

1.75 ГБ

В этой теме нет новых непрочитанных сообщений. Плавание. Чемпионат мира на короткой воде 2012. Стамбул. День 1. Вечер (2012) IPTVRip

0 | 2

2.79 ГБ

В этой теме нет новых непрочитанных сообщений. Плавание. Чемпионат Европы на короткой воде 2013 [12-15.12] (2013) IPTVRip

3 | 6

5.65 ГБ

В этой теме нет новых непрочитанных сообщений. Плавание. Чемпионат мира на короткой воде - 2014. Доха (Катар) / День четвертый [06.12] (2014) SATRip

35 | 21

1.07 ГБ

В этой теме нет новых непрочитанных сообщений. Плавание. Чемпионат мира на короткой воде - 2014. Доха (Катар) / День первый [03.12] (2014) SATRip

13 | 6

1.82 ГБ




Вы не можете начинать темы
Вы не можете отвечать на сообщения
Вы не можете редактировать свои сообщения
Вы не можете удалять свои сообщения
Вы не можете добавлять вложения

Перейти:  
Для Мосгорсуда, Роскомнадзора и рекламодателей: mosgorsud-torrent[собачка]yandex.ru
 Вход
ppkBB3cker v.2 © 2008-2014 @ PPK
[ Time : 0.054s | 14 Queries | GZIP : Off ]

Торрент трекер RUTOR.IN, Не можете зайти на rutor.org? Какой новый адрес рутор? Какое зеркало рутор? Не работает rutor.org и зеркала? Тогда наш торрент специально для вас. Rutor.in неофициальное зеркало rutor. В случае если у Вас заблокирован rutor или вдруг Вы не можете на него зайти, то Вы без труда сможете скачать бесплатно и без рекламы последние новинки кино, игр, сериалов и прочего у нас, на Rutor.in. Не нужно использовать прокси, чтобы зайти на рутор, достаточно воспользоваться нашим ресурсом. Все новые фильмы, игры, сериалы, книги и музыка за 2013 и 2014 годы через торрент бесплатно. Скачивайте фильмы в хорошем качестве, игры для пк, xbox, playstation без регистрации. У нас вы найдете новые Зарубежные сериалы и Русские сериалы 2013, 2014, 2015 годов. Оставайтесь с нами, качайте любимые фильмы, игры, сериалы, книги и музыку.