img image001 image001 image001 image001 image001 image001 image001 image001 image001 image001 image001 image001 image001 image001 image001

Planets Sun Sun Sun
Статистика раздачи
Автор: Снежана | Размер: 2.94 ГБ | Добавлен: 02 авг 2013
Раздают: 0    Качают: 2
Скачать торрент
Скачать торрент
Описание торрента

СообщениеДобавлено: 02 авг 2013 

#77


Гельзенкирхен, Германия. Рождественская гонка 2012

Дата: 29.12.2012
Вид спорта: Биатлон
Продолжительность: 00:40:02
Языки комментариев: Русский

Канал:

Качество: HDTV
Формат: TS
Видео: H264; 1920x1080 (16:9); 25.000 fps; 9800 kbps
Аудио: RUS; MP2; 48 KHz; 192 kbps; Stereo; 2 channels

В трансляции присутсвуют некоторые зависания картинки ...
General
ID : 1
Complete name : D:Рождественская гонка. Масс-старт (2012).ts
Format : MPEG-TS
File size : 2.94 GiB
Duration : 40mn 2s
Overall bit rate : 10.5 Mbps
Maximum Overall bit rate : 35.5 Mbps

Video
ID : 4113 (0x1011)
Menu ID : 1 (0x1)
Format : AVC
Format/Info : Advanced Video Codec
Format profile : High@L4.0
Format settings, CABAC : Yes
Format settings, ReFrames : 3 frames
Format settings, GOP : M=1, N=56
Codec ID : 27
Duration : 40mn 2s
Bit rate mode : Variable
Bit rate : 9 789 Kbps
Maximum bit rate : 40.0 Mbps
Width : 1 920 pixels
Height : 1 080 pixels
Display aspect ratio : 16:9
Frame rate : 25.000 fps
Standard : Component
Color space : YUV
Chroma subsampling : 4:2:0
Bit depth : 8 bits
Scan type : Interlaced
Scan order : Top Field First
Bits/(Pixel*Frame) : 0.189
Stream size : 2.74 GiB (93%)
Color primaries : BT.709-5, BT.1361, IEC 61966-2-4, SMPTE RP177
Transfer characteristics : BT.709-5, BT.1361
Matrix coefficients : BT.709-5, BT.1361, IEC 61966-2-4 709, SMPTE RP177

Audio
ID : 4352 (0x1100)
Menu ID : 1 (0x1)
Format : MPEG Audio
Format version : Version 1
Format profile : Layer 2
Codec ID : 4
Duration : 40mn 3s
Bit rate mode : Constant
Bit rate : 192 Kbps
Channel(s) : 2 channels
Sampling rate : 48.0 KHz
Stream size : 55.0 MiB (2%)
Language : Russian





   Похожие торренты   Торрент   Размер 
В этой теме нет новых непрочитанных сообщений. Биатлон. Рождественская гонка 2012. Гельзенкирхен, Германия. Гонка преследования [Eurosport HD] [29.12] (2012) HDTV 1080i

0 | 6

2.61 ГБ

В этой теме нет новых непрочитанных сообщений. Биатлон. Рождественская гонка звезд. Масс-старт. Гельзенкирхен. Германия (2011) SATRip

0 | 2

356.25 МБ

В этой теме нет новых непрочитанных сообщений. Биатлон. Рождественская гонка 2012. Гельзенкирхен, Германия [Россия 2] [29.12] (2012) IPTVRip

0 | 1

1.2 ГБ

В этой теме нет новых непрочитанных сообщений. Биатлон. 5 этап. Масс-старт 15 км. Мужчины. Рупольдинг, Германия [Eurosport HD] [13.01] (2013) HDTV 1080i

0 | 1

3.23 ГБ

В этой теме нет новых непрочитанных сообщений. Биатлон. Рождественская гонка 2015. Масс-старт, гонка преследования, награждение [28.12] (2015) HDTV 1080i

9 | 1

7.31 ГБ

В этой теме нет новых непрочитанных сообщений. Биатлон. Рождественская гонка звезд. Масс-старт. (Германия) [Россия 2] [28.12] (2013) SATRip от MediaClub

0 | 1

526.12 МБ

В этой теме нет новых непрочитанных сообщений. Биатлон. Кубок Мира 2012-13. 3-й этап. Поклюка (Словения). Мужчины. Масс - старт [Eurosport HD] [16.12] (2012) HDTV 1080i

0 | 1

2.91 ГБ




Вы не можете начинать темы
Вы не можете отвечать на сообщения
Вы не можете редактировать свои сообщения
Вы не можете удалять свои сообщения
Вы не можете добавлять вложения

Перейти:  
Для Мосгорсуда, Роскомнадзора и рекламодателей: mosgorsud-torrent[собачка]yandex.ru
 Вход
ppkBB3cker v.2 © 2008-2014 @ PPK
[ Time : 0.049s | 17 Queries | GZIP : Off ]

cron