img image001 image001 image001 image001 image001 image001 image001 image001 image001 image001 image001 image001 image001 image001 image001

Planets Sun Sun Sun
Статистика раздачи
Автор: Снежана | Размер: 2.63 ГБ | Добавлен: 02 авг 2013
Раздают: 0    Качают: 2
Скачать торрент
Скачать торрент
Описание торрента

СообщениеДобавлено: 02 авг 2013 

#77


Горные лыжи. Кубок мира 2012-2013.
Semmering (AUT). Слалом. Женщины. 2-я попытка


Вид спорта: Слалом
Участники: все
Дата/Год выпуска: 29.12.12
Язык комментариев: русский (Владимир Андреев)
Описание: все нормуль

Автор записи: SashaR

Качество: DVB-S2 Remux
Формат видео: TS
Видео: AVC, 1920x1080, 16:9, 7 982 Kbps, 25 fps
Аудио: MP2, 192 Kbps, 48.0 kHz, 2 channels
все

00:42:42

D:Кубок мира.Горные лыжи.Слалом.Земмерлинг.Женщины.ts
General #6
ID : 6 (0x6)
Complete name : D:Кубок мира.Горные лыжи.Слалом.Земмерлинг.Женщины.ts
Format : MPEG-TS
File size : 2.63 GiB
Duration : 42mn 42s
Overall bit rate : 8 805 Kbps
Video #324
ID : 324 (0x144)
Menu ID : 12104 (0x2F48)
Format : AVC
Format/Info : Advanced Video Codec
Format profile : High@L4.0
Format settings, CABAC : Yes
Format settings, ReFrames : 3 frames
Codec ID : 27
Duration : 42mn 42s
Bit rate : 7 982 Kbps
Width : 1 920 pixels
Height : 1 080 pixels
Display aspect ratio : 16:9
Frame rate : 25.000 fps
Standard : Component
Color space : YUV
Chroma subsampling : 4:2:0
Bit depth : 8 bits
Scan type : Interlaced
Scan order : Top Field First
Bits/(Pixel*Frame) : 0.154
Stream size : 2.38 GiB (91%)
Color primaries : BT.709-5, BT.1361, IEC 61966-2-4, SMPTE RP177
Transfer characteristics : BT.709-5, BT.1361
Matrix coefficients : BT.709-5, BT.1361, IEC 61966-2-4 709, SMPTE RP177
Audio #404
ID : 404 (0x194)
Menu ID : 12104 (0x2F48)
Format : MPEG Audio
Format version : Version 1
Format profile : Layer 2
Codec ID : 4
Duration : 42mn 42s
Bit rate mode : Constant
Bit rate : 192 Kbps
Channel(s) : 2 channels
Sampling rate : 48.0 KHz
Compression mode : Lossy
Delay relative to video : -54ms
Stream size : 58.7 MiB (2%)
Language : Russian
Language, more info : Clean effects
Audio #424
ID : 424 (0x1A8)
Menu ID : 12104 (0x2F48)
Format : MPEG Audio
Format version : Version 1
Format profile : Layer 2
Codec ID : 4
Duration : 42mn 42s
Bit rate mode : Constant
Bit rate : 192 Kbps
Channel(s) : 2 channels
Sampling rate : 48.0 KHz
Compression mode : Lossy
Delay relative to video : -30ms
Stream size : 58.7 MiB (2%)
Language : English
Language, more info : Clean effects





   Похожие торренты   Торрент   Размер 
В этой теме нет новых непрочитанных сообщений. Горные лыжи. Кубок мира 2012-2013. Semmering (AUT). Женщины. Слалом. 1, 2 попытки (2012) IPTV

0 | 2

2.98 ГБ

В этой теме нет новых непрочитанных сообщений. Горные лыжи. Кубок мира 2012-2013. Semmering (AUT). Женщины. Слалом-гигант. 1, 2 попытки (2012) IPTV

0 | 2

2.87 ГБ

В этой теме нет новых непрочитанных сообщений. Горные лыжи. Кубок мира 2012-2013. Val d'Isere (FRA). Мужчины. Слалом-гигант. 2 попытка (2012) IPTV

1 | 2

914.02 МБ

В этой теме нет новых непрочитанных сообщений. Горные лыжи. Кубок мира 2012-2013. Val d'Isere (FRA). Мужчины. Слалом-гигант. 1 попытка (2012) IPTV

0 | 2

1.29 ГБ

В этой теме нет новых непрочитанных сообщений. Горные лыжи. Кубок мира 2015-16. Арэ (Швеция) Женщины. Гигантский слалом [01-02 попытка] [12.12] (2015) HDTV 1080i

18 | 6

5 ГБ

В этой теме нет новых непрочитанных сообщений. Горные лыжи. Кубок мира 2015-16. Арэ (Швеция). Женщины. Слалом [01-02 попытка] [Eurosport HD] [13.12] (2015) HDTV 1080i

21 | 5

6.49 ГБ

В этой теме нет новых непрочитанных сообщений. Горные лыжи. Кубок мира 2015-16. Лиенц (Австрия). Женщины. Гигантский слалом [01-02 попытка] [Eurosport HD] [28.12] (2015) HDTV 1080i

22 | 5

7.87 ГБ




Вы не можете начинать темы
Вы не можете отвечать на сообщения
Вы не можете редактировать свои сообщения
Вы не можете удалять свои сообщения
Вы не можете добавлять вложения

Перейти:  
Для Мосгорсуда, Роскомнадзора и рекламодателей: mosgorsud-torrent[собачка]yandex.ru
 Вход
ppkBB3cker v.2 © 2008-2014 @ PPK
[ Time : 0.532s | 14 Queries | GZIP : Off ]

Торрент трекер RUTOR.IN, Не можете зайти на rutor.org? Какой новый адрес рутор? Какое зеркало рутор? Не работает rutor.org и зеркала? Тогда наш торрент специально для вас. Rutor.in неофициальное зеркало rutor. В случае если у Вас заблокирован rutor или вдруг Вы не можете на него зайти, то Вы без труда сможете скачать бесплатно и без рекламы последние новинки кино, игр, сериалов и прочего у нас, на Rutor.in. Не нужно использовать прокси, чтобы зайти на рутор, достаточно воспользоваться нашим ресурсом. Все новые фильмы, игры, сериалы, книги и музыка за 2013 и 2014 годы через торрент бесплатно. Скачивайте фильмы в хорошем качестве, игры для пк, xbox, playstation без регистрации. У нас вы найдете новые Зарубежные сериалы и Русские сериалы 2013, 2014, 2015 годов. Оставайтесь с нами, качайте любимые фильмы, игры, сериалы, книги и музыку.