img image001 image001 image001 image001 image001 image001 image001 image001 image001 image001 image001 image001 image001 image001 image001

Planets Sun Sun Sun
Статистика раздачи
Автор: Снежана | Размер: 4.45 ГБ | Добавлен: 02 авг 2013
Раздают: 37    Качают: 2
Скачать торрент
Скачать торрент
Описание торрента

СообщениеДобавлено: 02 авг 2013 

#77


Fastest / Самый Быстрый [2011, MotoGP/МотоГП]
Год выпуска: 2011
Вид спорта: Мотогонки
Участники: Эван МакГрегор, Хорхе Лоренсо, Валентино Росси, Ben Spies, Casey Stoner
Продолжительность: 01:51:22
Комментарий: Любительский (одноголосый)
Язык комментариев: Русский
Роли озвучивали:: Вадиван(русголос.рф)
Описание: Этот документальный фильм погрузит вас в мир MOTOGPTM и расскажет о необыкновенной самоотдаче, мужестве и преданности, которых этот спорт требует от своих звезд. Беспрецедентные, неопубликованные ранее материалы, интервью, взлеты и падения спортсменов, угрожающие карьере, а иногда и жизни аварии и многое другое!
Качество: BDRip
Формат: AVI
Видео кодек: XviD
Аудио кодек: MP3
Видео: XviD/720p /1280x720/23,976 fps /5,454 Mbps
Аудио: Русский/Перевод/MP3/48KHz/Stereo/256 Kbps
General
Complete name : Fastest.2011.RUS.rusgolos.avi
Format : AVI
Format/Info : Audio Video Interleave
Format profile : OpenDML
File size : 4.45 GiB
Duration : 1h 51mn
Overall bit rate : 5 714 Kbps
Video #0
ID : 0
Format : MPEG-4 Visual
Format profile : Advanced Simple@L5
Format settings, BVOP : 2
Format settings, QPel : No
Format settings, GMC : No warppoints
Format settings, Matrix : Default (H.263)
Muxing mode : Packed bitstream
Codec ID : XVID
Codec ID/Hint : XviD
Duration : 1h 51mn
Bit rate : 5 454 Kbps
Width : 1 280 pixels
Height : 720 pixels
Display aspect ratio : 16:9
Frame rate : 23.976 fps
Color space : YUV
Chroma subsampling : 4:2:0
Bit depth : 8 bits
Scan type : Progressive
Compression mode : Lossy
Bits/(Pixel*Frame) : 0.247
Stream size : 4.24 GiB (95%)
Writing library : XviD 64
Audio #1
ID : 1
Format : MPEG Audio
Format version : Version 1
Format profile : Layer 3
Mode : Joint stereo
Codec ID : 55
Codec ID/Hint : MP3
Duration : 1h 51mn
Bit rate mode : Constant
Bit rate : 256 Kbps
Channel(s) : 2 channels
Sampling rate : 48.0 KHz
Compression mode : Lossy
Stream size : 204 MiB (4%)
Alignment : Aligned on interleaves
Interleave, duration : 626 ms (15.00 video frames)





   Похожие торренты   Торрент   Размер 
В этой теме нет новых непрочитанных сообщений. OST - Самый быстрый / Fastest [Tomandandy] (2011) MP3

2 | 1

137.95 МБ

В этой теме нет новых непрочитанных сообщений. Самый быстрый «Индиан» / The World's Fastest Indian (2005) BDRip

365 | 11

1.46 ГБ

В этой теме нет новых непрочитанных сообщений. Самый быстрый «Индиан» / The World's Fastest Indian (2005) BDRip от HQCLUB

87 | 9

2.58 ГБ

В этой теме нет новых непрочитанных сообщений. Самый быстрый «Индиан» / The World's Fastest Indian (2005) BDRip от MediaClub | КПК

79 | 9

574.17 МБ

В этой теме нет новых непрочитанных сообщений. Самый быстрый «Индиан» / The World's Fastest Indian (2005) BDRip 1080р | D, P

69 | 8

10.59 ГБ

В этой теме нет новых непрочитанных сообщений. Самый быстрый Indian / The World's Fastest Indian (2005) BDRip | A

12 | 4

2.18 ГБ

В этой теме нет новых непрочитанных сообщений. Самый быстрый меч / The Fastest Sword (Tian xia di yi jian) (1968) DVDRip

59 | 9

1.37 ГБ




Вы не можете начинать темы
Вы не можете отвечать на сообщения
Вы не можете редактировать свои сообщения
Вы не можете удалять свои сообщения
Вы не можете добавлять вложения

Перейти:  
Для Мосгорсуда, Роскомнадзора и рекламодателей: mosgorsud-torrent[собачка]yandex.ru
 Вход
ppkBB3cker v.2 © 2008-2014 @ PPK
[ Time : 0.037s | 15 Queries | GZIP : Off ]

cron