img image001 image001 image001 image001 image001 image001 image001 image001 image001 image001 image001 image001 image001 image001 image001

Planets Sun Sun Sun
Статистика раздачи
Автор: Снежана | Размер: 3.76 ГБ | Добавлен: 02 авг 2013
Раздают: 19    Качают: 4
Скачать торрент
Скачать торрент
Описание торрента

СообщениеДобавлено: 02 авг 2013 

#77


Турист Трофи. На Грани Возможного
TT3D: Closer to the Edge 3D


Год выпуска: 2011
Вид спорта: Мотогонки
Участники: Гай Мартин, Йен Хатчинсон, Конор Камминс, Джон МакГиннесс, Майкл Данлоп, Кейт Амор, Брюс Энсти, Джон Бартон, Пол Доббс, Камерон Дональд, Райан Фаркуар...
Продолжительность: 01:43:40
Комментарий: Любительский (одноголосый)
Язык комментариев: Русский
Роли озвучивали:: Вадиван(русголос.рф)
Описание: Гонки Tourist Trophy (ТТ) проводятся на острове Мэн (Великобритания) на горной трассе длиной 59,6 километра с 1907 года. Несмотря на то, что дорожные гонки сейчас проводятся в разных уголках планеты – от Бельгии до Новой Зеландии – британский остров Мэн остается настоящей Меккой подобного рода соревнований. Гонка проводится в пяти классах: TT Superbike (1000 кубиков), TT Superstock (1000 кубиков), Supersport (600сс), Senior TT (1000 кубиков) и Sidecar (с коляской) . В зависимости от класса, гонщикам нужно проехать от трех до шести 60-километровых кругов. Максимальное количество гонщиков, которые могут принять участие в каждом из классов – 85. Допускается участие одних и тех же гонщиков на одних и тех же машинах в нескольких классах (если мотоцикл соответствует требованиям этих классов).

Примечательно, что гонка проводится в одном из самых спокойных и тихих районов острова, который на две недели в году превращается из тихой английской глубинки в шумный оазис мотоциклистов. Мероприятие практически всегда проводится в последнюю неделю мая и первую неделю июня и благодаря множеству сопутствующих событий и особой атмосфере превращается в настоящий карнавал. Вдоль трассы собираются туристы, журналисты, байкеры, снимают на фото и видео, жарят шашлыки, пьют пиво, тусуются и общаются.

Tourist Trophy – не только одна из самых зрелищных, но и одна из самых опасных гонок в мире. За ее более чем столетнюю историю на острове Мэн погибли более 233 человек.

Цитата из фильма: "А если тебя это не впечатляет, то ты не живой человек, а просто дерево. Это факт"
Качество: BDRip
Формат: AVI
Видео кодек: XviD
Аудио кодек: MP3
Видео: XviD/720p /1280x694/23,976 fps /5 Mbps
Аудио: Русский/Перевод/MP3/48KHz/Stereo/192 Kbps
D:ВидеоФильмыTT.Closer.to.the.Edge.720p.RUS.avi
General
Complete name : D:ВидеоФильмыTT.Closer.to.the.Edge.720p.RUS.avi
Format : AVI
Format/Info : Audio Video Interleave
Format profile : OpenDML
File size : 3.76 GiB
Duration : 1h 43mn
Overall bit rate : 5 192 Kbps
Video #0
ID : 0
Format : MPEG-4 Visual
Format profile : Advanced Simple@L5
Format settings, BVOP : 2
Format settings, QPel : No
Format settings, GMC : No warppoints
Format settings, Matrix : Default (H.263)
Muxing mode : Packed bitstream
Codec ID : XVID
Codec ID/Hint : XviD
Duration : 1h 43mn
Bit rate : 4 996 Kbps
Width : 1 280 pixels
Height : 694 pixels
Display aspect ratio : 16:9
Frame rate : 23.976 fps
Color space : YUV
Chroma subsampling : 4:2:0
Bit depth : 8 bits
Scan type : Progressive
Compression mode : Lossy
Bits/(Pixel*Frame) : 0.235
Stream size : 3.62 GiB (96%)
Writing library : XviD 64
Audio #1
ID : 1
Format : MPEG Audio
Codec ID : 55
Codec ID/Hint : MP3
Duration : 1h 43mn
Bit rate : 192 Kbps
Channel(s) : 2 channels
Sampling rate : 48.0 KHz
Compression mode : Lossy
Stream size : 142 MiB (4%)
Alignment : Aligned on interleaves
Interleave, duration : 626 ms (15.00 video frames)




   Похожие торренты   Торрент   Размер 
В этой теме нет новых непрочитанных сообщений. На грани / The Edge (1997) BDRip 720p by msltel | 4 x P, 3 x A

70 | 19

5.73 ГБ

В этой теме нет новых непрочитанных сообщений. Человеческое тело: Грани Возможного / Human Body: Pushing the Limits (2008) BDRip от HQ-ViDEO

39 | 83

3.35 ГБ

В этой теме нет новых непрочитанных сообщений. Человеческое тело: Грани Возможного - Осязание / Human Body: Pushing the Limits [03] (2008) BDRip

11 | 2

745.28 МБ

В этой теме нет новых непрочитанных сообщений. Discovery: Тело человека: Грани возможного / Human body: Pushing the limits [01-04 из 04] (2008) BDRip-AVC от MediaClub | P2

152 | 18

4.73 ГБ

В этой теме нет новых непрочитанных сообщений. Discovery: Тело человека: Грани возможного / Human body: Pushing the limits [01-04 из 04] (2008) BDRip 1080p от Filmoff CLUB

39 | 6

12.66 ГБ

В этой теме нет новых непрочитанных сообщений. Грани возможного. Избранный. Коллекционное издание (2014) PC

2271 | 104

1.18 ГБ

В этой теме нет новых непрочитанных сообщений. Бриджет Джонс: Грани разумного / Bridget Jones: The Edge of Reason (2004) BDRip 720p by Romeo

142 | 9

2.18 ГБ




Вы не можете начинать темы
Вы не можете отвечать на сообщения
Вы не можете редактировать свои сообщения
Вы не можете удалять свои сообщения
Вы не можете добавлять вложения

Перейти:  
Для Мосгорсуда, Роскомнадзора и рекламодателей: mosgorsud-torrent[собачка]yandex.ru
 Вход
ppkBB3cker v.2 © 2008-2014 @ PPK
[ Time : 0.028s | 15 Queries | GZIP : Off ]

Торрент трекер RUTOR.IN, Не можете зайти на rutor.org? Какой новый адрес рутор? Какое зеркало рутор? Не работает rutor.org и зеркала? Тогда наш торрент специально для вас. Rutor.in неофициальное зеркало rutor. В случае если у Вас заблокирован rutor или вдруг Вы не можете на него зайти, то Вы без труда сможете скачать бесплатно и без рекламы последние новинки кино, игр, сериалов и прочего у нас, на Rutor.in. Не нужно использовать прокси, чтобы зайти на рутор, достаточно воспользоваться нашим ресурсом. Все новые фильмы, игры, сериалы, книги и музыка за 2013 и 2014 годы через торрент бесплатно. Скачивайте фильмы в хорошем качестве, игры для пк, xbox, playstation без регистрации. У нас вы найдете новые Зарубежные сериалы и Русские сериалы 2013, 2014, 2015 годов. Оставайтесь с нами, качайте любимые фильмы, игры, сериалы, книги и музыку.
cron