img image001 image001 image001 image001 image001 image001 image001 image001 image001 image001 image001 image001 image001 image001 image001

Planets Sun Sun Sun
Статистика раздачи
Автор: Снежана | Размер: 3.51 ГБ | Добавлен: 02 авг 2013
Раздают: 0    Качают: 1
Скачать торрент
Скачать торрент
Описание торрента

СообщениеДобавлено: 02 авг 2013 

#77


Спринт 7.5 км. Оберхоф, Германия. Женщины

Вид спорта: Биатлон
Участники: все
Дата/Год выпуска: 05.01.13
Язык комментариев: русский ( Сергей Курдюков )
Описание: всё нормуль
Качество: DVB-S2 Remux
Формат видео: TS
Видео: AVC, 1920x1080, 16:9, 6 211 Kbps, 25 fps
Аудио: MP2, 192 Kbps, 48.0 kHz, 2 channels
все

01:12:26

F:Кубок Мира 2012-13. 4-й этап. Оберхоф (Германия). Женщины. Спринт.Eurosport HD.ts
General #6
ID : 6 (0x6)
Complete name : F:Кубок Мира 2012-13. 4-й этап. Оберхоф (Германия). Женщины. Спринт.Eurosport HD.ts
Format : MPEG-TS
File size : 3.51 GiB
Duration : 1h 12mn
Overall bit rate : 6 942 Kbps
Video #324
ID : 324 (0x144)
Menu ID : 12104 (0x2F48)
Format : AVC
Format/Info : Advanced Video Codec
Format profile : High@L4.0
Format settings, CABAC : Yes
Format settings, ReFrames : 3 frames
Format settings, GOP : M=4, N=28
Codec ID : 27
Duration : 1h 12mn
Bit rate : 6 211 Kbps
Width : 1 920 pixels
Height : 1 080 pixels
Display aspect ratio : 16:9
Frame rate : 25.000 fps
Standard : Component
Color space : YUV
Chroma subsampling : 4:2:0
Bit depth : 8 bits
Scan type : Interlaced
Scan order : Top Field First
Bits/(Pixel*Frame) : 0.120
Stream size : 3.14 GiB (89%)
Color primaries : BT.709-5, BT.1361, IEC 61966-2-4, SMPTE RP177
Transfer characteristics : BT.709-5, BT.1361
Matrix coefficients : BT.709-5, BT.1361, IEC 61966-2-4 709, SMPTE RP177
Audio #404
ID : 404 (0x194)
Menu ID : 12104 (0x2F48)
Format : MPEG Audio
Format version : Version 1
Format profile : Layer 2
Codec ID : 4
Duration : 1h 12mn
Bit rate mode : Constant
Bit rate : 192 Kbps
Channel(s) : 2 channels
Sampling rate : 48.0 KHz
Compression mode : Lossy
Delay relative to video : 162ms
Stream size : 99.5 MiB (3%)
Language : Russian
Language, more info : Clean effects
Audio #424
ID : 424 (0x1A8)
Menu ID : 12104 (0x2F48)
Format : MPEG Audio
Format version : Version 1
Format profile : Layer 2
Codec ID : 4
Duration : 1h 12mn
Bit rate mode : Constant
Bit rate : 192 Kbps
Channel(s) : 2 channels
Sampling rate : 48.0 KHz
Compression mode : Lossy
Delay relative to video : 282ms
Stream size : 99.5 MiB (3%)
Language : English
Language, more info : Clean effects





   Похожие торренты   Торрент   Размер 
В этой теме нет новых непрочитанных сообщений. Биатлон. Спринт 10 км. Оберхоф, Германия. Мужчины [Eurosport HD] [05.01] (2013) DVBRemux

0 | 1

3.94 ГБ

В этой теме нет новых непрочитанных сообщений. Биатлон. Спринт 7.5 км. Оберхоф, Германия. Женщины [Eurosport] [05.01] (2012) SATRip

0 | 1

815.76 МБ

В этой теме нет новых непрочитанных сообщений. Биатлон. Кубок мира 2013/14. 4 этап. Спринт. Женщины. Оберхоф (Германия) [Спорт 1 HD] [03.01] (2014) HDTV 1080i от MediaClub

0 | 1

3.1 ГБ

В этой теме нет новых непрочитанных сообщений. Биатлон. Спринт 7.5 км. Оберхоф, Германия. Женщины [Спорт 1] [05.01] (2012) HDTV 1080i

0 | 1

6.42 ГБ

В этой теме нет новых непрочитанных сообщений. Биатлон. Эстафета 4x6 км. Оберхоф, Германия. Женщины [Eurosport HD] [03.01] (2012) HDTV 1080i

0 | 2

5.59 ГБ

В этой теме нет новых непрочитанных сообщений. Биатлон. Кубок Мира 2014-15. 4-й этап. Оберхоф (Германия). Женщины. Спринт 7,5 км [09.01] (2015) HDTV 1080i

34 | 6

4.03 ГБ

В этой теме нет новых непрочитанных сообщений. Биатлон. Гонка преследования 10 км. Оберхоф, Германия. Женщины [Eurosport] [06.01] (2013) SATRip

0 | 1

636.07 МБ




Вы не можете начинать темы
Вы не можете отвечать на сообщения
Вы не можете редактировать свои сообщения
Вы не можете удалять свои сообщения
Вы не можете добавлять вложения

Перейти:  
Для Мосгорсуда, Роскомнадзора и рекламодателей: mosgorsud-torrent[собачка]yandex.ru
 Вход
ppkBB3cker v.2 © 2008-2014 @ PPK
[ Time : 0.026s | 14 Queries | GZIP : Off ]

Торрент трекер RUTOR.IN, Не можете зайти на rutor.org? Какой новый адрес рутор? Какое зеркало рутор? Не работает rutor.org и зеркала? Тогда наш торрент специально для вас. Rutor.in неофициальное зеркало rutor. В случае если у Вас заблокирован rutor или вдруг Вы не можете на него зайти, то Вы без труда сможете скачать бесплатно и без рекламы последние новинки кино, игр, сериалов и прочего у нас, на Rutor.in. Не нужно использовать прокси, чтобы зайти на рутор, достаточно воспользоваться нашим ресурсом. Все новые фильмы, игры, сериалы, книги и музыка за 2013 и 2014 годы через торрент бесплатно. Скачивайте фильмы в хорошем качестве, игры для пк, xbox, playstation без регистрации. У нас вы найдете новые Зарубежные сериалы и Русские сериалы 2013, 2014, 2015 годов. Оставайтесь с нами, качайте любимые фильмы, игры, сериалы, книги и музыку.