img image001 image001 image001 image001 image001 image001 image001 image001 image001 image001 image001 image001 image001 image001 image001

Planets Sun Sun Sun
Статистика раздачи
Автор: Снежана | Размер: 1.92 ГБ | Добавлен: 02 авг 2013
Раздают: 0    Качают: 2
Скачать торрент
Скачать торрент
Описание торрента

СообщениеДобавлено: 02 авг 2013 

#77

Вид спорта: Велоспорт
Дата/Год выпуска: 2013
Язык комментариев: РУССКИЙ/АНГЛИЙСКИЙ
Описание: Интервью Лэнса Армстронга Опре Уинфри.

Качество: SATRip (Remux)
Формат видео: MPEG
Видео: MPEG, 704*576, 2200kb/s
Аудио: MP2, 128kb, 48kHz, 2ch

1ч3мин + 0ч42мин
General
Format : MPEG-TS
Overall bit rate : 2 585 Kbps

Video
ID : 324 (0x144)
Menu ID : 20505 (0x5019)
Format : MPEG Video
Format version : Version 2
Format profile : Main@Main
Format settings, BVOP : Yes
Format settings, Matrix : Default
Codec ID : 2
Bit rate mode : Variable
Bit rate : 2 198 Kbps
Nominal bit rate : 4 000 Kbps
Width : 704 pixels
Height : 576 pixels
Display aspect ratio : 4:3
Frame rate : 25.000 fps
Standard : PAL
Color space : YUV
Chroma subsampling : 4:2:0
Bit depth : 8 bits
Scan type : Interlaced
Scan order : Top Field First
Compression mode : Lossy
Bits/(Pixel*Frame) : 0.217
Stream size : 1 001 MiB (85%)

Audio #1
ID : 408 (0x198)
Menu ID : 20505 (0x5019)
Format : MPEG Audio
Format version : Version 1
Format profile : Layer 2
Mode : Joint stereo
Codec ID : 3
Duration : 1h 3mn
Bit rate mode : Constant
Bit rate : 128 Kbps
Channel(s) : 2 channels
Sampling rate : 48.0 KHz
Compression mode : Lossy
Stream size : 58.3 MiB (5%)

Audio #2
ID : 409 (0x199)
Menu ID : 20505 (0x5019)
Format : MPEG Audio
Format version : Version 1
Format profile : Layer 2
Mode : Joint stereo
Codec ID : 3
Duration : 1h 3mn
Bit rate mode : Constant
Bit rate : 128 Kbps
Channel(s) : 2 channels




   Похожие торренты   Торрент   Размер 
В этой теме нет новых непрочитанных сообщений. Ложь Армстронга / The Armstrong Lie (2013) HDRip | iTunes

375 | 97

2.05 ГБ

В этой теме нет новых непрочитанных сообщений. Ложь Армстронга / The Armstrong Lie (2013) BDRip 720p | iTunes

111 | 52

9.29 ГБ

В этой теме нет новых непрочитанных сообщений. Познер. Интервью с Константином Агладзе [эфир от 07.04] (2013) SATRip

0 | 2

597.63 МБ

В этой теме нет новых непрочитанных сообщений. Познер. Интервью с Валерием Гергиевым [эфир от 28.04] (2013) SATRip

0 | 10

714.89 МБ

В этой теме нет новых непрочитанных сообщений. Познер. Интервью с Дмитрием Ливановым [эфир от 17.03] (2013) SATRip

0 | 2

625.25 МБ

В этой теме нет новых непрочитанных сообщений. Познер. Интервью с Гейдар Джемалем [эфир от 14.10] (2013) SATRip

3 | 2

637.94 МБ

В этой теме нет новых непрочитанных сообщений. Познер. Интервью с Игорем Слюняевым [эфир от 09.12] (2013) SATRip

0 | 2

621.05 МБ




Вы не можете начинать темы
Вы не можете отвечать на сообщения
Вы не можете редактировать свои сообщения
Вы не можете удалять свои сообщения
Вы не можете добавлять вложения

Перейти:  
Для Мосгорсуда, Роскомнадзора и рекламодателей: mosgorsud-torrent[собачка]yandex.ru
 Вход
ppkBB3cker v.2 © 2008-2014 @ PPK
[ Time : 0.055s | 15 Queries | GZIP : Off ]

cron