img image001 image001 image001 image001 image001 image001 image001 image001 image001 image001 image001 image001 image001 image001 image001

Planets Sun Sun Sun
Статистика раздачи
Автор: Снежана | Размер: 855.29 МБ | Добавлен: 03 авг 2013
Раздают: 1    Качают: 2
Скачать торрент
Скачать торрент
Описание торрента

СообщениеДобавлено: 03 авг 2013 

#77


Биатлон. Сочи (Эфир от 2013.03.09)

Год выпуска: 2013
Дата эфира: 9 марта
Ведущие: Тарас Тимошенко
Продолжительность: 01:13:04
Комментарий: Профессиональный
Язык комментариев: Русский
Описание: Программа посвященная биатлону и всему, что связано с ним и с этапом кубка мира в Сочи. Содержит многочисленные интервью со спортсменами и тренерами. Прямой эфир из студии Россия 2 и прямые включения с Дмитрием Губерниевым из Сочи. Эксперт в студии - Анна Богалий-Титовец.
Автор рипа: sanchez2011

Качество: IPTVRip
Формат: AVI
Видео кодек: XviD
Аудио кодек: MP3
Видео: MPEG-4 Visual (H263) 720x400 (16:9) 25.00fps 1500kbps
Аудио: MPEG Audio Layer 3 48000Hz stereo 128kbps



ОбщееПолное имя : E:TorrentБиатлон. Сочи (Эфир от 2013.03.09).aviФормат : AVIФормат/Информация : Audio Video InterleaveРазмер файла : 855 МбайтПродолжительность : 1 ч. 13 м.Общий поток : 1637 Кбит/секПрограмма кодирования : VirtualDubMod 1.5.10.2 (build 2540/release)Библиотека кодирования : VirtualDubMod build 2540/release

ВидеоИдентификатор : 0Формат : MPEG-4 VisualПрофиль формата : Advanced Simple@L5Параметр BVOP формата : 2Параметр QPel формата : НетПараметр GMC формата : Без точки переходаПараметр матрицы формата : Default (H.263)Режим смешивания : Сжатый битовый потокИдентификатор кодека : XVIDИдентификатор кодека/Подсказка : XviDПродолжительность : 1 ч. 13 м.Битрейт : 1499 Кбит/секШирина : 720 пикселейВысота : 400 пикселейСоотношение сторон : 16:9Частота кадров : 25,000 кадров/секЦветовое пространство : YUVСубдискретизация насыщенности : 4:2:0Битовая глубина : 8 битТип развёртки : ПрогрессивнаяМетод сжатия : С потерямиБит/(Пиксели*Кадры) : 0.208Размер потока : 783 Мбайт (92%)Библиотека кодирования : XviD 1.2.1 (UTC 2008-12-04)

АудиоИдентификатор : 1Формат : MPEG AudioВерсия формата : Version 1Профиль формата : Layer 3Режим : Joint stereoРасширение режима : MS StereoИдентификатор кодека : 55Идентификатор кодека/Подсказка : MP3Продолжительность : 1 ч. 13 м.Вид битрейта : ПостоянныйБитрейт : 128 Кбит/секКаналы : 2 каналаЧастота : 48,0 КГцМетод сжатия : С потерямиРазмер потока : 66,9 Мбайт (8%)Выравнивание : Соединение по промежуткамПродолжительность промежутка : 40 мс. (1,00 видеокадр)Время предзагрузки промежутка : 504 мс.



   Похожие торренты   Торрент   Размер 
В этой теме нет новых непрочитанных сообщений. Биатлон. 8-й этап. Женщины (Сочи, Россия). Индивидуальная гонка. Мужчины [Eurosport] [07.03] (2013) IPTV

0 | 2

3.19 ГБ

В этой теме нет новых непрочитанных сообщений. Биатлон. 8-й этап. Женщины (Сочи, Россия). Индивидуальная гонка. Мужчины [Спорт 1 HD] [07.03] (2013) HDTV 1080i

0 | 1

14.41 ГБ

В этой теме нет новых непрочитанных сообщений. Биатлон с Дмитрием Губерниевым [Эфир от 29.12] (2012) IPTVRip

0 | 1

576.86 МБ

В этой теме нет новых непрочитанных сообщений. Биатлон с Дмитрием Губерниевым [Эфир от 16.03] (2012) IPTVRip

2 | 1

352.19 МБ

В этой теме нет новых непрочитанных сообщений. Биатлон с Дмитрием Губерниевым.[Эфир от 07.04] 2012 IPTVRip

0 | 1

273.03 МБ

В этой теме нет новых непрочитанных сообщений. Биатлон с Дмитрием Губерниевым [Эфир от 10.02] (2012) IPTVRip

0 | 1

345.3 МБ

В этой теме нет новых непрочитанных сообщений. Биатлон с Дмитрием Губерниевым [Эфир от 19.01] (2012) IPTVRip

0 | 1

281.24 МБ




Вы не можете начинать темы
Вы не можете отвечать на сообщения
Вы не можете редактировать свои сообщения
Вы не можете удалять свои сообщения
Вы не можете добавлять вложения

Перейти:  
Для Мосгорсуда, Роскомнадзора и рекламодателей: mosgorsud-torrent[собачка]yandex.ru
 Вход
ppkBB3cker v.2 © 2008-2014 @ PPK
[ Time : 0.538s | 16 Queries | GZIP : Off ]

Торрент трекер RUTOR.IN, Не можете зайти на rutor.org? Какой новый адрес рутор? Какое зеркало рутор? Не работает rutor.org и зеркала? Тогда наш торрент специально для вас. Rutor.in неофициальное зеркало rutor. В случае если у Вас заблокирован rutor или вдруг Вы не можете на него зайти, то Вы без труда сможете скачать бесплатно и без рекламы последние новинки кино, игр, сериалов и прочего у нас, на Rutor.in. Не нужно использовать прокси, чтобы зайти на рутор, достаточно воспользоваться нашим ресурсом. Все новые фильмы, игры, сериалы, книги и музыка за 2013 и 2014 годы через торрент бесплатно. Скачивайте фильмы в хорошем качестве, игры для пк, xbox, playstation без регистрации. У нас вы найдете новые Зарубежные сериалы и Русские сериалы 2013, 2014, 2015 годов. Оставайтесь с нами, качайте любимые фильмы, игры, сериалы, книги и музыку.