img image001 image001 image001 image001 image001 image001 image001 image001 image001 image001 image001 image001 image001 image001 image001

Planets Sun Sun Sun
Статистика раздачи
Автор: Снежана | Размер: 640.43 МБ | Добавлен: 03 авг 2013
Раздают: 1    Качают: 2
Скачать торрент
Скачать торрент
Описание торрента

СообщениеДобавлено: 03 авг 2013 

#77


Чемпионат России 2013. Уват (Тюменская область). Мужчины. Гонка преследования 12.5 км

Вид спорта: Биатлон
Комментарий: Профессиональный
Язык комментариев: Русский (Дмитрий Рыбьяков)
Продолжительность: 00:46:13
Описание: Мужская гонка преследования в рамках чемпионата России по биатлону 2013 в Увате.
Автор рипа: sanchez2011

Качество: SATRip
Формат: AVI
Видео кодек: XviD
Аудио кодек: MP3
Видео: MPEG-4 Visual (H263) 720x464 (1,552) 25.00fps 1800kbps
Аудио: MPEG Audio Layer 3 48000Hz stereo 128kbps



ОбщееПолное имя : E:TorrentЧемпионат России 2013. Уват (Тюменская область). Мужчины. Гонка преследования 12,5 км SATRip by sanchez2011.aviФормат : AVIФормат/Информация : Audio Video InterleaveРазмер файла : 640 МбайтПродолжительность : 46 м.Общий поток : 1937 Кбит/секПрограмма кодирования : VirtualDubMod 1.5.10.2 (build 2540/release)Библиотека кодирования : VirtualDubMod build 2540/release

ВидеоИдентификатор : 0Формат : MPEG-4 VisualПрофиль формата : Advanced Simple@L5Параметр BVOP формата : 2Параметр QPel формата : НетПараметр GMC формата : Без точки переходаПараметр матрицы формата : Default (H.263)Режим смешивания : Сжатый битовый потокИдентификатор кодека : XVIDИдентификатор кодека/Подсказка : XviDПродолжительность : 46 м.Битрейт : 1799 Кбит/секШирина : 720 пикселейВысота : 464 пикселяСоотношение сторон : 4:3Соотношение сторон в оригинале : 1,552Частота кадров : 25,000 кадров/секЦветовое пространство : YUVСубдискретизация насыщенности : 4:2:0Битовая глубина : 8 битТип развёртки : ПрогрессивнаяМетод сжатия : С потерямиБит/(Пиксели*Кадры) : 0.215Размер потока : 595 Мбайт (93%)Библиотека кодирования : XviD 1.2.1 (UTC 2008-12-04)

АудиоИдентификатор : 1Формат : MPEG AudioВерсия формата : Version 1Профиль формата : Layer 3Режим : Joint stereoРасширение режима : MS StereoИдентификатор кодека : 55Идентификатор кодека/Подсказка : MP3Продолжительность : 46 м.Вид битрейта : ПостоянныйБитрейт : 128 Кбит/секКаналы : 2 каналаЧастота : 48,0 КГцМетод сжатия : С потерямиРазмер потока : 42,3 Мбайт (7%)Выравнивание : Соединение по промежуткамПродолжительность промежутка : 40 мс. (1,00 видеокадр)Время предзагрузки промежутка : 504 мс.




   Похожие торренты   Торрент   Размер 
В этой теме нет новых непрочитанных сообщений. Биатлон. Чемпионат России 2013. Уват (Тюменская область). Мужчины. Гонка преследования 12.5 км [24.03] (2013) DVB

0 | 2

782.55 МБ

В этой теме нет новых непрочитанных сообщений. Биатлон. Чемпионат России 2013. Уват (Тюменская область). Женщины. Гонка преследования 10 км [24.03] (2013) SATRip

1 | 2

717.61 МБ

В этой теме нет новых непрочитанных сообщений. Биатлон. Чемпионат России 2013. Уват (Тюменская область). Мужчины. Эстафета 4x7,5 км [26.03] (2013) SATRip

0 | 2

1.16 ГБ

В этой теме нет новых непрочитанных сообщений. Биатлон. Чемпионат России 2013. Уват (Тюменская область). Мужчины. Масс-старт 15 км [27.03] (2013) SATRip

1 | 2

708.16 МБ

В этой теме нет новых непрочитанных сообщений. Биатлон. Чемпионат России 2013. Уват (Тюменская область). Мужчины. Спринт 10 [23.03] (2013) IPTVRip

0 | 2

1.19 ГБ

В этой теме нет новых непрочитанных сообщений. Биатлон. Чемпионат России 2013. Уват (Тюменская область). Женщины. Эстафета 4x6 км [26.03] (2013) DVB

0 | 2

1.57 ГБ

В этой теме нет новых непрочитанных сообщений. Биатлон. Открытый Кубок России 2013. Тюмень. Мужчины. Гонка преследования 12,5 км (2013) SATRip

0 | 1

917.18 МБ




Вы не можете начинать темы
Вы не можете отвечать на сообщения
Вы не можете редактировать свои сообщения
Вы не можете удалять свои сообщения
Вы не можете добавлять вложения

Перейти:  
Для Мосгорсуда, Роскомнадзора и рекламодателей: mosgorsud-torrent[собачка]yandex.ru
 Вход
ppkBB3cker v.2 © 2008-2014 @ PPK
[ Time : 0.022s | 16 Queries | GZIP : On ]

Торрент трекер RUTOR.IN, Не можете зайти на rutor.org? Какой новый адрес рутор? Какое зеркало рутор? Не работает rutor.org и зеркала? Тогда наш торрент специально для вас. Rutor.in неофициальное зеркало rutor. В случае если у Вас заблокирован rutor или вдруг Вы не можете на него зайти, то Вы без труда сможете скачать бесплатно и без рекламы последние новинки кино, игр, сериалов и прочего у нас, на Rutor.in. Не нужно использовать прокси, чтобы зайти на рутор, достаточно воспользоваться нашим ресурсом. Все новые фильмы, игры, сериалы, книги и музыка за 2013 и 2014 годы через торрент бесплатно. Скачивайте фильмы в хорошем качестве, игры для пк, xbox, playstation без регистрации. У нас вы найдете новые Зарубежные сериалы и Русские сериалы 2013, 2014, 2015 годов. Оставайтесь с нами, качайте любимые фильмы, игры, сериалы, книги и музыку.