img image001 image001 image001 image001 image001 image001 image001 image001 image001 image001 image001 image001 image001 image001 image001

Planets Sun Sun Sun
Статистика раздачи
Автор: Снежана | Размер: 1.57 ГБ | Добавлен: 03 авг 2013
Раздают: 0    Качают: 2
Скачать торрент
Скачать торрент
Описание торрента

СообщениеДобавлено: 03 авг 2013 

#77


Чемпионат России 2013. Уват (Тюменская область). Женщины. Эстафета 4x6 км

Вид спорта: Биатлон
Комментарий: Профессиональный
Язык комментариев: Русский (Дмитрий Рыбьяков)
Продолжительность: 01:29:25
Описание: Женская эстафета в рамках чемпионата России по биатлону 2013 в Увате.
Автор рипа: sanchez2011
Качество: DVB
Формат: MPEG
Видео кодек: MPEG2
Аудио кодек: MP2
Видео: MPEG2 Video 720x576 (4:3) 25.00fps 2266kbps
Аудио: MPEG Audio Layer 2 48000Hz stereo 192kbps



ОбщееПолное имя : E:TorrentЧемпионат России 2013. Уват (Тюменская область). Женщины. Эстафета 4x6 км SATRemux by sanchez2011.mpgФормат : MPEG-PSРазмер файла : 1,57 ГбайтПродолжительность : 1 ч. 29 м.Режим общего битрейта : ПеременныйОбщий поток : 2508 Кбит/секБиблиотека кодирования : (c) 1998-2012 Womble Multimedia, Inc. / MPEG Video Wizard DVD 5.0.1.100 (03/2011) / Sep 22 2012

ВидеоИдентификатор : 224 (0xE0)Формат : MPEG VideoВерсия формата : Version 2Профиль формата : Main@MainПараметр BVOP формата : ДаПараметр матрицы формата : ВыборочнаяПараметр GOP формата : VariableПродолжительность : 1 ч. 29 м.Вид битрейта : ПеременныйБитрейт : 2266 Кбит/секМаксимальный битрейт : 15,0 Мбит/секШирина : 720 пикселейВысота : 576 пикселейСоотношение сторон : 4:3Частота кадров : 25,000 кадров/секСтандарт вещания : PALЦветовое пространство : YUVСубдискретизация насыщенности : 4:2:0Битовая глубина : 8 битТип развёртки : ЧересстрочнаяПорядок развёртки : Верхнее поле первоеМетод сжатия : С потерямиБит/(Пиксели*Кадры) : 0.219Размер потока : 1,42 Гбайт (90%)Выравнивание : (c) 1998-2012 Womble Multimedia, Inc. / MPEG Video Wizard DVD 5.0.1.100 (03/2011) / Sep 22 2012Заголовок : (c) 1998-2012 Womble Multimedia, Inc. / MPEG Video Wizard DVD 5.0.1.100 (03/2011) / Sep 22 2012Библиотека кодирования : (c) 1998-2012 Womble Multimedia, Inc. / MPEG Video Wizard DVD 5.0.1.100 (03/2011) / Sep 22 2012

АудиоИдентификатор : 192 (0xC0)Формат : MPEG AudioВерсия формата : Version 1Профиль формата : Layer 2Продолжительность : 1 ч. 29 м.Вид битрейта : ПостоянныйБитрейт : 192 Кбит/секКаналы : 2 каналаЧастота : 48,0 КГцМетод сжатия : С потерямиЗадержка видео : -80 мс.Размер потока : 123 Мбайт (8%)




   Похожие торренты   Торрент   Размер 
В этой теме нет новых непрочитанных сообщений. Биатлон. Чемпионат России 2013. Уват (Тюменская область). Мужчины. Эстафета 4x7,5 км [26.03] (2013) SATRip

0 | 2

1.16 ГБ

В этой теме нет новых непрочитанных сообщений. Биатлон. Чемпионат России 2013. Уват (Тюменская область). Женщины. Гонка преследования 10 км [24.03] (2013) SATRip

1 | 2

717.61 МБ

В этой теме нет новых непрочитанных сообщений. Биатлон. Чемпионат России 2013. Уват (Тюменская область). Мужчины. Гонка преследования 12.5 км [24.03] (2013) DVB

0 | 2

782.55 МБ

В этой теме нет новых непрочитанных сообщений. Биатлон. Чемпионат России 2013. Уват (Тюменская область). Мужчины. Спринт 10 [23.03] (2013) IPTVRip

0 | 2

1.19 ГБ

В этой теме нет новых непрочитанных сообщений. Биатлон. Чемпионат России 2013. Уват (Тюменская область). Мужчины. Гонка преследования 12.5 км [24.03] (2013) SATRip

1 | 2

640.43 МБ

В этой теме нет новых непрочитанных сообщений. Биатлон. Чемпионат России 2013. Уват (Тюменская область). Мужчины. Масс-старт 15 км [27.03] (2013) SATRip

1 | 2

708.16 МБ

В этой теме нет новых непрочитанных сообщений. Биатлон. Чемпионат Европы 2013. Банско (Болгария). Женщины. Эстафета [26.02] (2013) IPTVRip

1 | 1

992.72 МБ




Вы не можете начинать темы
Вы не можете отвечать на сообщения
Вы не можете редактировать свои сообщения
Вы не можете удалять свои сообщения
Вы не можете добавлять вложения

Перейти:  
Для Мосгорсуда, Роскомнадзора и рекламодателей: mosgorsud-torrent[собачка]yandex.ru
 Вход
ppkBB3cker v.2 © 2008-2014 @ PPK
[ Time : 0.020s | 14 Queries | GZIP : Off ]

Торрент трекер RUTOR.IN, Не можете зайти на rutor.org? Какой новый адрес рутор? Какое зеркало рутор? Не работает rutor.org и зеркала? Тогда наш торрент специально для вас. Rutor.in неофициальное зеркало rutor. В случае если у Вас заблокирован rutor или вдруг Вы не можете на него зайти, то Вы без труда сможете скачать бесплатно и без рекламы последние новинки кино, игр, сериалов и прочего у нас, на Rutor.in. Не нужно использовать прокси, чтобы зайти на рутор, достаточно воспользоваться нашим ресурсом. Все новые фильмы, игры, сериалы, книги и музыка за 2013 и 2014 годы через торрент бесплатно. Скачивайте фильмы в хорошем качестве, игры для пк, xbox, playstation без регистрации. У нас вы найдете новые Зарубежные сериалы и Русские сериалы 2013, 2014, 2015 годов. Оставайтесь с нами, качайте любимые фильмы, игры, сериалы, книги и музыку.