img image001 image001 image001 image001 image001 image001 image001 image001 image001 image001 image001 image001 image001 image001 image001

Planets Sun Sun Sun
Статистика раздачи
Автор: Снежана | Размер: 262.81 МБ | Добавлен: 03 авг 2013
Раздают: 0    Качают: 1
Скачать торрент
Скачать торрент
Описание торрента

СообщениеДобавлено: 03 авг 2013 

Гонка Чемпионов 2013 в Москве. Перед стартом



Вид спорта: Биатлон
Комментарий: Профессиональный
Язык комментариев: Русский (Дмитрий Губерниев)
Продолжительность: 00:22:27

Описание: В видео содержится информация о том, как шла подготовка Олимпийского к предстоящему событию, о том, какой вклад внесли в подготовку братья Фуркады, сопустсвующие интервью из прямого эфира и жеребьевка женщин.
Автор рипа: sanchez2011
Качество: SATRip

Формат: AVI
Видео кодек: XviD
Аудио кодек: MP3
Видео: MPEG-4 Visual (H263) 720x400 (16:9) 25.00fps 1500kbps
Аудио: MPEG Audio Layer 3 48000Hz stereo 128kbps


ОбщееПолное имя : E:TorrentГонка чемпионов 2013Гонка чемпионов. Перед стартом.aviФормат : AVIФормат/Информация : Audio Video InterleaveРазмер файла : 263 МбайтПродолжительность : 22 м.Общий поток : 1637 Кбит/секПрограмма кодирования : VirtualDubMod 1.5.10.2 (build 2540/release)Библиотека кодирования : VirtualDubMod build 2540/release

ВидеоИдентификатор : 0Формат : MPEG-4 VisualПрофиль формата : Advanced Simple@L5Параметр BVOP формата : 2Параметр QPel формата : НетПараметр GMC формата : Без точки переходаПараметр матрицы формата : Default (H.263)Режим смешивания : Сжатый битовый потокИдентификатор кодека : XVIDИдентификатор кодека/Подсказка : XviDПродолжительность : 22 м.Битрейт : 1499 Кбит/секШирина : 720 пикселейВысота : 400 пикселейСоотношение сторон : 16:9Частота кадров : 25,000 кадров/секЦветовое пространство : YUVСубдискретизация насыщенности : 4:2:0Битовая глубина : 8 битТип развёртки : ПрогрессивнаяМетод сжатия : С потерямиБит/(Пиксели*Кадры) : 0.208Размер потока : 241 Мбайт (92%)Библиотека кодирования : XviD 1.2.1 (UTC 2008-12-04)

АудиоИдентификатор : 1Формат : MPEG AudioВерсия формата : Version 1Профиль формата : Layer 3Режим : Joint stereoРасширение режима : MS StereoИдентификатор кодека : 55Идентификатор кодека/Подсказка : MP3Продолжительность : 22 м.Вид битрейта : ПостоянныйБитрейт : 128 Кбит/секКаналы : 2 каналаЧастота : 48,0 КГцМетод сжатия : С потерямиРазмер потока : 20,6 Мбайт (8%)Выравнивание : Соединение по промежуткамПродолжительность промежутка : 40 мс. (1,00 видеокадр)Время предзагрузки промежутка : 504 мс.



   Похожие торренты   Торрент   Размер 
В этой теме нет новых непрочитанных сообщений. Биатлон. Гонка чемпионов 2013. Москва. Все гонки. [Россия 2] [06.04] (2013) SATRip

0 | 2

2.56 ГБ

В этой теме нет новых непрочитанных сообщений. Биатлон. Гонка Чемпионов. Гонка поколений и смешанная эстафета. [РОССИЯ HD] [06.04] (2013) HDRip

1 | 2

1.95 ГБ

В этой теме нет новых непрочитанных сообщений. Биатлон. Гонка Чемпионов 2015. Тюмень (Россия) [05.04] (2014) SATRip

57 | 13

2.05 ГБ

В этой теме нет новых непрочитанных сообщений. Биатлон. Гонка Чемпионов. Масс-старт, женщины. Награждение. [РОССИЯ HD] [06.04] (2013) HDRip

0 | 1

701.57 МБ

В этой теме нет новых непрочитанных сообщений. Биатлон. Гонка Чемпионов. Масс-старт, женщины. Награждение. [РОССИЯ HD] [06.04] (2013) HDRip

0 | 1

460.91 МБ

В этой теме нет новых непрочитанных сообщений. Биатлон. Гонка чемпионов 2013. Москва. Все гонки. [РОССИЯ HD] [06.04] (2013) HDTV 1080i

0 | 2

9.38 ГБ

В этой теме нет новых непрочитанных сообщений. Биатлон. Рождественская гонка звезд. Гонка преследования. (Германия) [Россия 2] [28.12] (2013) SATRip от MediaClub

0 | 1

634.24 МБ




Вы не можете начинать темы
Вы не можете отвечать на сообщения
Вы не можете редактировать свои сообщения
Вы не можете удалять свои сообщения
Вы не можете добавлять вложения

Перейти:  
Для Мосгорсуда, Роскомнадзора и рекламодателей: mosgorsud-torrent[собачка]yandex.ru
 Вход
ppkBB3cker v.2 © 2008-2014 @ PPK
[ Time : 0.691s | 14 Queries | GZIP : Off ]

Торрент трекер RUTOR.IN, Не можете зайти на rutor.org? Какой новый адрес рутор? Какое зеркало рутор? Не работает rutor.org и зеркала? Тогда наш торрент специально для вас. Rutor.in неофициальное зеркало rutor. В случае если у Вас заблокирован rutor или вдруг Вы не можете на него зайти, то Вы без труда сможете скачать бесплатно и без рекламы последние новинки кино, игр, сериалов и прочего у нас, на Rutor.in. Не нужно использовать прокси, чтобы зайти на рутор, достаточно воспользоваться нашим ресурсом. Все новые фильмы, игры, сериалы, книги и музыка за 2013 и 2014 годы через торрент бесплатно. Скачивайте фильмы в хорошем качестве, игры для пк, xbox, playstation без регистрации. У нас вы найдете новые Зарубежные сериалы и Русские сериалы 2013, 2014, 2015 годов. Оставайтесь с нами, качайте любимые фильмы, игры, сериалы, книги и музыку.