img image001 image001 image001 image001 image001 image001 image001 image001 image001 image001 image001 image001 image001 image001 image001 image001

Planets Sun Sun Sun
Статистика раздачи
Автор: Снежана | Размер: 5.14 ГБ | Добавлен: 02 авг 2013
Раздают: 0    Качают: 2
Скачать торрент
Скачать торрент
Описание торрента

СообщениеДобавлено: 02 авг 2013 

World Series by Renault 3,5. Rd01 Italy. Monza Race 2



Вид спорта: open wheel
Участники: пилоты сезона 2013
Дата/Год выпуска: 07.04.13
Язык комментариев: русский (А.Попов, Н.Фабричнова)

Автор записи: SashaR.

Качество: DVB-S2 Remux
Формат видео: TS
Видео: AVC, 1920x1080, 16:9, 11.5 Mbps, 25 fps
Аудио: MP2, 192 Kbps, 48.0 kHz, 2 channels
J:World Series by Renault 3,5. Gp Italy. Monza Race 2.ts
General #6
ID : 6 (0x6)
Complete name : J:World Series by Renault 3,5. Gp Italy. Monza Race 2.ts
Format : MPEG-TS
File size : 5.14 GiB
Duration : 59mn 51s
Overall bit rate : 12.3 Mbps
Video #303
ID : 303 (0x12F)
Menu ID : 20103 (0x4E87)
Format : AVC
Format/Info : Advanced Video Codec
Format profile : High@L4.0
Format settings, CABAC : Yes
Format settings, ReFrames : 3 frames
Codec ID : 27
Duration : 59mn 50s
Bit rate : 11.5 Mbps
Width : 1 920 pixels
Height : 1 080 pixels
Display aspect ratio : 16:9
Frame rate : 25.000 fps
Standard : Component
Color space : YUV
Chroma subsampling : 4:2:0
Bit depth : 8 bits
Scan type : Interlaced
Scan order : Top Field First
Bits/(Pixel*Frame) : 0.222
Stream size : 4.81 GiB (93%)
Color primaries : BT.709-5, BT.1361, IEC 61966-2-4, SMPTE RP177
Transfer characteristics : BT.709-5, BT.1361
Matrix coefficients : BT.709-5, BT.1361, IEC 61966-2-4 709, SMPTE RP177
Audio #403
ID : 403 (0x193)
Menu ID : 20103 (0x4E87)
Format : MPEG Audio
Format version : Version 1
Format profile : Layer 2
Codec ID : 4
Duration : 59mn 51s
Bit rate mode : Constant
Bit rate : 192 Kbps
Channel(s) : 2 channels
Sampling rate : 48.0 KHz
Compression mode : Lossy
Delay relative to video : 28ms
Stream size : 82.2 MiB (2%)
Language : Russian

00:59:52





   Похожие торренты   Торрент   Размер 
В этой теме нет новых непрочитанных сообщений. Автоспорт. IZOD IndyCar Series 2013. Этап 16. Baltimore. Race (2013) IPTVRip

0 | 2

5.85 ГБ

В этой теме нет новых непрочитанных сообщений. Автоспорт. GP2. 2013. Этап 09. Италия. Monza. Квалификация. Гонка 1-2 (2013) HDTVRip

0 | 2

1.36 ГБ

В этой теме нет новых непрочитанных сообщений. Автоспорт. GP3 2013. Этап 07. Италия. Monza. Гонка 1-2 (2013) HDTVRip

0 | 2

803.03 МБ

В этой теме нет новых непрочитанных сообщений. Автоспорт. Monster Energy NASCAR Cup Series 2017. All-Star Race. Charlotte [20.05] (2017) HDTVRip 720p

3 | 3

4.21 ГБ

В этой теме нет новых непрочитанных сообщений. Автоспорт. GP2-GP3 Series 2014. Hockenheimring (Germany) [Спорт 1 HD, Eurosport 2 HD] [19.07] (2014) DVB-S2 Remux

0 | 2

27.79 ГБ

В этой теме нет новых непрочитанных сообщений. Автоспорт. GP2-GP3 Series 2014. Hockenheimring (Germany) [Спорт 1 HD, Eurosport 2 HD] [19.07] (2014) DVB-S2 Remux

1 | 5

9.85 ГБ

В этой теме нет новых непрочитанных сообщений. Автоспорт. Verizon Indycar Series 2014. Этап 05. Indianapolis 500. Гонка (2014) DVB-S2 Remux 1080i

0 | 5

17.06 ГБ




Вы не можете начинать темы
Вы не можете отвечать на сообщения
Вы не можете редактировать свои сообщения
Вы не можете удалять свои сообщения
Вы не можете добавлять вложения

Перейти:  
 Вход
ppkBB3cker v.2 © 2008-2014 @ PPK
[ Time : 0.018s | 17 Queries | GZIP : Off ]

cron