img image001 image001 image001 image001 image001 image001 image001 image001 image001 image001 image001 image001 image001 image001 image001

Planets Sun Sun Sun
Статистика раздачи
Автор: Снежана | Размер: 5.11 ГБ | Добавлен: 03 авг 2013
Раздают: 0    Качают: 2
Скачать торрент
Скачать торрент
Описание торрента

СообщениеДобавлено: 03 авг 2013 

WTCC. Round 2 . Marrakech (Morocco). Гонка 2



Вид спорта: WTCC
Участники: все
Дата/Год выпуска: 07.04.13
Язык комментариев: русский

Автор записи: SashaR.
Доп. информация: нет

Качество: DVB-S2 Remux
Формат видео: TS
Видео: AVC, 1920x1080, 16:9, 9 881 Kbps, 25 fps
Аудио: MP2, 192 Kbps, 48.0 kHz, 2 channels

ГОНКА 1
J:WTCC. Round 2 . Marrakech (Morocco). Ãîíêà 2.ts
General #6
ID : 6 (0x6)
Complete name : J:WTCC. Round 2 . Marrakech (Morocco). Ãîíêà 2.ts
Format : MPEG-TS
File size : 5.11 GiB
Duration : 1h 9mn
Overall bit rate : 10.6 Mbps
Video #324
ID : 324 (0x144)
Menu ID : 12104 (0x2F48)
Format : AVC
Format/Info : Advanced Video Codec
Format profile : High@L4.0
Format settings, CABAC : Yes
Format settings, ReFrames : 3 frames
Codec ID : 27
Duration : 1h 9mn
Bit rate : 9 881 Kbps
Width : 1 920 pixels
Height : 1 080 pixels
Display aspect ratio : 16:9
Frame rate : 25.000 fps
Standard : Component
Color space : YUV
Chroma subsampling : 4:2:0
Bit depth : 8 bits
Scan type : Interlaced
Scan order : Top Field First
Bits/(Pixel*Frame) : 0.191
Stream size : 4.76 GiB (93%)
Color primaries : BT.709-5, BT.1361, IEC 61966-2-4, SMPTE RP177
Transfer characteristics : BT.709-5, BT.1361
Matrix coefficients : BT.709-5, BT.1361, IEC 61966-2-4 709, SMPTE RP177
Audio #404
ID : 404 (0x194)
Menu ID : 12104 (0x2F48)
Format : MPEG Audio
Format version : Version 1
Format profile : Layer 2
Codec ID : 4
Duration : 1h 9mn
Bit rate mode : Constant
Bit rate : 192 Kbps
Channel(s) : 2 channels
Sampling rate : 48.0 KHz
Compression mode : Lossy
Delay relative to video : 10ms
Stream size : 94.8 MiB (2%)
Language : Russian
Language, more info : Clean effects

01:09:01




   Похожие торренты   Торрент   Размер 
В этой теме нет новых непрочитанных сообщений. Автоспорт. Auto GP. Round 02. Marrakech (Morocco). Race 01 (2013) IPTV

0 | 1

1.65 ГБ

В этой теме нет новых непрочитанных сообщений. Автоспорт. World Touring Car Championship (WTCC). Этап 8. Аргентина. Разминка, Гонка 1, Гонка 2 (2013) DVB-S2 Remux

1 | 2

8.15 ГБ

В этой теме нет новых непрочитанных сообщений. Автоспорт. WTCC. 2012. Round 12. Macau. Гонка 1, 2 (2012) HDTV 1080i

0 | 2

6.67 ГБ

В этой теме нет новых непрочитанных сообщений. Автоспорт. WTCC. 2012. Round 10. Suzuka. Квалификация, Warm Up, Гонка 1, 2 (2012) IPTV

0 | 2

4.72 ГБ

В этой теме нет новых непрочитанных сообщений. Автоспорт. World Touring Car Championship (WTCC). Round 4. Hungaroring (2013) HDTV 1080i

2 | 2

5.54 ГБ

В этой теме нет новых непрочитанных сообщений. Автоспорт. World Touring Car Championship (WTCC). Round 3. Slovakia Ring (2013) HDTV 1080i

1 | 2

4.42 ГБ

В этой теме нет новых непрочитанных сообщений. Автоспорт. WTCC. Этап 1. Монца. Квалификация [23.02] (2013) DVB-S2 Remux

0 | 2

4.92 ГБ




Вы не можете начинать темы
Вы не можете отвечать на сообщения
Вы не можете редактировать свои сообщения
Вы не можете удалять свои сообщения
Вы не можете добавлять вложения

Перейти:  
Для Мосгорсуда, Роскомнадзора и рекламодателей: mosgorsud-torrent[собачка]yandex.ru
 Вход
ppkBB3cker v.2 © 2008-2014 @ PPK
[ Time : 0.063s | 14 Queries | GZIP : On ]

Торрент трекер RUTOR.IN, Не можете зайти на rutor.org? Какой новый адрес рутор? Какое зеркало рутор? Не работает rutor.org и зеркала? Тогда наш торрент специально для вас. Rutor.in неофициальное зеркало rutor. В случае если у Вас заблокирован rutor или вдруг Вы не можете на него зайти, то Вы без труда сможете скачать бесплатно и без рекламы последние новинки кино, игр, сериалов и прочего у нас, на Rutor.in. Не нужно использовать прокси, чтобы зайти на рутор, достаточно воспользоваться нашим ресурсом. Все новые фильмы, игры, сериалы, книги и музыка за 2013 и 2014 годы через торрент бесплатно. Скачивайте фильмы в хорошем качестве, игры для пк, xbox, playstation без регистрации. У нас вы найдете новые Зарубежные сериалы и Русские сериалы 2013, 2014, 2015 годов. Оставайтесь с нами, качайте любимые фильмы, игры, сериалы, книги и музыку.