img image001 image001 image001 image001 image001 image001 image001 image001 image001 image001 image001 image001 image001 image001 image001

Planets Sun Sun Sun
Статистика раздачи
Автор: Снежана | Размер: 10.5 ГБ | Добавлен: 03 авг 2013
Раздают: 1    Качают: 1
Скачать торрент
Скачать торрент
Описание торрента

СообщениеДобавлено: 03 авг 2013 

Лига Чемпионов 2012-13 / 1/4 финала / Ответный матч / Боруссия (Дортмунд, Германия) - Малага (Испания)



Вид спорта: Футбол
Участники: все
Дата/Год выпуска: 09.04.13
Язык комментариев: русский
Описание: Первый матч между соперниками завершился нулевой ничьей, которая несомненно на руку испанскому клубу, поскольку голы в гостевых матчах при текущей системе розыгрыша турнира имеют огромный вес. Кроме того защитные построения обеих команд в последних матчах частенько давали сбой, и повторение безголевого матча крайне маловероятно. Ситуация в национальных чемпионатах для соперников обстоит по-разному: в минувшие выходные «Боруссия» потеряла даже теоретические шансы на чемпионство, и, имея небольшой отрыв от «Байера», может сконцентрироваться на Лиге Чемпионов, «Малага» напротив ведёт ожесточенное сражение за 4-е место сразу с несколькими соперниками, и это может привести к дефициту сил в решающих матчах. Последние матчи команды провели по-разному. «Боруссия» переиграла «Аугсбург» 4:2, а «Малага» с тем же счётом проиграла «Реал Сосьедаду».

Автор записи: SashaR.
Доп. информация: нет

Качество: DVB-S2 Remux
Формат видео: TS
Видео: AVC, 1920x1080, 16:9, 11.9 Mbps, 25 fps
Аудио: MP2, 192 Kbps, 48.0 kHz, 2 channels

J:Ëèãà ×åìïèîíîâ 2012-13 . Îòâåòíûé ìàò÷ . Áîðóññèÿ (Äîðòìóíä, Ãåðìàíèÿ) - Ìàëàãà (Èñïàíèÿ).ts
General #6
ID : 6 (0x6)
Complete name : J:Ëèãà ×åìïèîíîâ 2012-13 . Îòâåòíûé ìàò÷ . Áîðóññèÿ (Äîðòìóíä, Ãåðìàíèÿ) - Ìàëàãà (Èñïàíèÿ).ts
Format : MPEG-TS
File size : 10.5 GiB
Duration : 1h 58mn
Overall bit rate : 12.7 Mbps
Video #301
ID : 301 (0x12D)
Menu ID : 20101 (0x4E85)
Format : AVC
Format/Info : Advanced Video Codec
Format profile : High@L4.0
Format settings, CABAC : Yes
Format settings, ReFrames : 3 frames
Codec ID : 27
Duration : 1h 58mn
Bit rate : 11.9 Mbps
Width : 1 920 pixels
Height : 1 080 pixels
Display aspect ratio : 16:9
Frame rate : 25.000 fps
Standard : Component
Color space : YUV
Chroma subsampling : 4:2:0
Bit depth : 8 bits
Scan type : Interlaced
Scan order : Top Field First
Bits/(Pixel*Frame) : 0.230
Stream size : 9.82 GiB (94%)
Color primaries : BT.709-5, BT.1361, IEC 61966-2-4, SMPTE RP177
Transfer characteristics : BT.709-5, BT.1361
Matrix coefficients : BT.709-5, BT.1361, IEC 61966-2-4 709, SMPTE RP177
Audio #401
ID : 401 (0x191)
Menu ID : 20101 (0x4E85)
Format : MPEG Audio
Format version : Version 1
Format profile : Layer 2
Codec ID : 4
Duration : 1h 58mn
Bit rate mode : Constant
Bit rate : 192 Kbps
Channel(s) : 2 channels
Sampling rate : 48.0 KHz
Compression mode : Lossy
Delay relative to video : 43ms
Stream size : 162 MiB (2%)
Language : Russian
Language, more info : Clean effects

01:58:00





   Похожие торренты   Торрент   Размер 
В этой теме нет новых непрочитанных сообщений. Футбол. Лига Чемпионов 2012/13. 1/4 финала. Ответный матч. Боруссия (Германия) - Малага (Испания) (2013) HDTVRip

8 | 1

1.55 ГБ

В этой теме нет новых непрочитанных сообщений. Футбол. Лига Чемпионов 2012/13. 1/4 финала. Ответный матч. Боруссия (Германия) - Малага (Испания) (2013) HDTVRip 720p | 50 FPS

2 | 2

3.36 ГБ

В этой теме нет новых непрочитанных сообщений. Футбол. Лига Чемпионов 2012/13. 1/4 финала. Первый матч. Малага (Испания) - Боруссия (Германия) (2013) HDTVRip 720p | 50 FPS

1 | 2

3.23 ГБ

В этой теме нет новых непрочитанных сообщений. Футбол. Лига Чемпионов 2012/13. 1/4 Финала. Первый матч. Малага (Испания) - Боруссия (Дортмунд, Германия) (2013) HDTV 1080i

0 | 1

11.46 ГБ

В этой теме нет новых непрочитанных сообщений. Футбол. Лига Чемпионов 2012/13. 1/2 финала. Ответный матч. Реал Мадрид (Испания) - Боруссия (Германия) (2013) HDTVRip

18 | 2

1.56 ГБ

В этой теме нет новых непрочитанных сообщений. Футбол. Лига Чемпионов 2012/13. 1/2 финала. Ответный матч. Реал Мадрид (Испания) - Боруссия (Германия) (2013) HDTVRip

0 | 1

2.04 ГБ

В этой теме нет новых непрочитанных сообщений. Футбол. Лига Чемпионов 2012/13. 1/2 финала. Ответный матч. Реал Мадрид (Испания) - Боруссия Д (Германия) (2013) HDTV 1080i

1 | 2

11.12 ГБ




Вы не можете начинать темы
Вы не можете отвечать на сообщения
Вы не можете редактировать свои сообщения
Вы не можете удалять свои сообщения
Вы не можете добавлять вложения

Перейти:  
Для Мосгорсуда, Роскомнадзора и рекламодателей: mosgorsud-torrent[собачка]yandex.ru
 Вход
ppkBB3cker v.2 © 2008-2014 @ PPK
[ Time : 0.084s | 15 Queries | GZIP : Off ]

Торрент трекер RUTOR.IN, Не можете зайти на rutor.org? Какой новый адрес рутор? Какое зеркало рутор? Не работает rutor.org и зеркала? Тогда наш торрент специально для вас. Rutor.in неофициальное зеркало rutor. В случае если у Вас заблокирован rutor или вдруг Вы не можете на него зайти, то Вы без труда сможете скачать бесплатно и без рекламы последние новинки кино, игр, сериалов и прочего у нас, на Rutor.in. Не нужно использовать прокси, чтобы зайти на рутор, достаточно воспользоваться нашим ресурсом. Все новые фильмы, игры, сериалы, книги и музыка за 2013 и 2014 годы через торрент бесплатно. Скачивайте фильмы в хорошем качестве, игры для пк, xbox, playstation без регистрации. У нас вы найдете новые Зарубежные сериалы и Русские сериалы 2013, 2014, 2015 годов. Оставайтесь с нами, качайте любимые фильмы, игры, сериалы, книги и музыку.
cron