img image001 image001 image001 image001 image001 image001 image001 image001 image001 image001 image001 image001 image001 image001 image001

Planets Sun Sun Sun
Статистика раздачи
Автор: Снежана | Размер: 7.83 ГБ | Добавлен: 03 авг 2013
Раздают: 0    Качают: 2
Скачать торрент
Скачать торрент
Описание торрента

СообщениеДобавлено: 03 авг 2013 

World Series by Renault 3,5. Aragon.

Вид спорта: WSR
Дата/Год выпуска: 27.04.13
Язык комментариев: русский(А.Попов, Н.Фабричнова)

Автор записи: SashaR.

Качество: DVB-S2 Remux
Формат видео: TS
Видео: AVC, 1920x1080, 16:9, 10.8 Mbps, 25 fps
Аудио: MP2, 192 Kbps, 48.0 kHz, 2 channels
E:WSR. Aragon 2013WSR 2013. Aragon. Race 1 .ts
General #6
ID : 6 (0x6)
Complete name : E:WSR. Aragon 2013WSR 2013. Aragon. Race 1 .ts
Format : MPEG-TS
File size : 4.90 GiB
Duration : 1h 0mn
Overall bit rate : 11.6 Mbps
Video #303
ID : 303 (0x12F)
Menu ID : 20103 (0x4E87)
Format : AVC
Format/Info : Advanced Video Codec
Format profile : High@L4.0
Format settings, CABAC : Yes
Format settings, ReFrames : 3 frames
Codec ID : 27
Duration : 1h 0mn
Bit rate : 10.8 Mbps
Width : 1 920 pixels
Height : 1 080 pixels
Display aspect ratio : 16:9
Frame rate : 25.000 fps
Standard : Component
Color space : YUV
Chroma subsampling : 4:2:0
Bit depth : 8 bits
Scan type : Interlaced
Scan order : Top Field First
Bits/(Pixel*Frame) : 0.209
Stream size : 4.58 GiB (93%)
Color primaries : BT.709-5, BT.1361, IEC 61966-2-4, SMPTE RP177
Transfer characteristics : BT.709-5, BT.1361
Matrix coefficients : BT.709-5, BT.1361, IEC 61966-2-4 709, SMPTE RP177
Audio #403
ID : 403 (0x193)
Menu ID : 20103 (0x4E87)
Format : MPEG Audio
Format version : Version 1
Format profile : Layer 2
Codec ID : 4
Duration : 1h 0mn
Bit rate mode : Constant
Bit rate : 192 Kbps
Channel(s) : 2 channels
Sampling rate : 48.0 KHz
Compression mode : Lossy
Delay relative to video : 26ms
Stream size : 83.1 MiB (2%)
Language : Russian

01:00:31




   Похожие торренты   Торрент   Размер 
В этой теме нет новых непрочитанных сообщений. Автоспорт. World Series by Renault 03,05. Rd01 Italy. Monza Race 02 (2013) DVB-S2 Remux

0 | 2

5.14 ГБ

В этой теме нет новых непрочитанных сообщений. Автоспорт. World Series by Renault 3.5 2013. Этап 04 Спа-Франкоршам (2013) DVB-S2 Remux

0 | 2

9.78 ГБ

В этой теме нет новых непрочитанных сообщений. Автоспорт. World Series by Renault 03,05. Rd01 Italy. Monza Race 02 (2013) SATRip

1 | 2

1.44 ГБ

В этой теме нет новых непрочитанных сообщений. Автоспорт. World Series by Renault. WSBR. Round 01-02, Review. Monza. Race 01 (2013) IPTV

0 | 2

3.51 ГБ

В этой теме нет новых непрочитанных сообщений. Автоспорт. World Series by Renault 3.5 2013. Этап 04 Спа-Франкоршам (2013) HDTVRip

0 | 2

2.65 ГБ

В этой теме нет новых непрочитанных сообщений. Автоспорт. World Series by Renault. 2013. Этап 05. Moscow Raceway (Россия) [22.06] (2013) HDTVRip 720р

0 | 2

5.44 ГБ

В этой теме нет новых непрочитанных сообщений. Автоспорт. World Series by Renault. 2013. Этап 05. Moscow Raceway (Россия) [22.06] (2013) HDTV 1080i

0 | 2

16.67 ГБ




Вы не можете начинать темы
Вы не можете отвечать на сообщения
Вы не можете редактировать свои сообщения
Вы не можете удалять свои сообщения
Вы не можете добавлять вложения

Перейти:  
Для Мосгорсуда, Роскомнадзора и рекламодателей: mosgorsud-torrent[собачка]yandex.ru
 Вход
ppkBB3cker v.2 © 2008-2014 @ PPK
[ Time : 0.579s | 14 Queries | GZIP : On ]

Торрент трекер RUTOR.IN, Не можете зайти на rutor.org? Какой новый адрес рутор? Какое зеркало рутор? Не работает rutor.org и зеркала? Тогда наш торрент специально для вас. Rutor.in неофициальное зеркало rutor. В случае если у Вас заблокирован rutor или вдруг Вы не можете на него зайти, то Вы без труда сможете скачать бесплатно и без рекламы последние новинки кино, игр, сериалов и прочего у нас, на Rutor.in. Не нужно использовать прокси, чтобы зайти на рутор, достаточно воспользоваться нашим ресурсом. Все новые фильмы, игры, сериалы, книги и музыка за 2013 и 2014 годы через торрент бесплатно. Скачивайте фильмы в хорошем качестве, игры для пк, xbox, playstation без регистрации. У нас вы найдете новые Зарубежные сериалы и Русские сериалы 2013, 2014, 2015 годов. Оставайтесь с нами, качайте любимые фильмы, игры, сериалы, книги и музыку.