img image001 image001 image001 image001 image001 image001 image001 image001 image001 image001 image001 image001 image001 image001 image001

Planets Sun Sun Sun
Статистика раздачи
Автор: Снежана | Размер: 5.91 ГБ | Добавлен: 02 авг 2013, 18:35
Раздают: 3    Качают: 2
Скачать торрент
Скачать торрент
Описание торрента

СообщениеДобавлено: 02 авг 2013, 18:35 

[url=http://postimage.org/][img]http://s5.postimage.org/xvujovhcn/7818822a5d80.jpg[/img][/url]
[b]Год выпуска:[/b] [color=blue]1982-2011[/color]
[b]Вид спорта:[/b] [color=blue]Снукер[/color]
[b]Комментарий:[/b] [color=blue]Профессиональный[/color]
[b]Перевод:[/b] [color=blue]Для любителей снукера не требуется! [/color]
[b]Продолжительность:[/b] [color=blue]Около 6 часов[/color]
[b]Доп. информация:[/b] [color=blue]Разное качество записей - от еле смотрибельного до "эйч-ди"....Форматы - в основном avi и mp4....[/color]

[b]Полный список максимальных брейков можно посмотреть,например,тут :[/b] [url=http://www.top-snooker.com/archiv/maximum]http://www.top-snooker.com/archiv/maximum[/url]

[b]Автор подборки:[/b] [color=blue][b]Евгений Z[/b][/color]

[b]Описание:[/b] [color=blue]40 снукерных максимумов.Максимумы,в отличии от сенчури, чётко фиксируются и пронумерованы.
Всего официально зарегистрированных "партий в 147 очков" было 85.В раздаче представлены 40 видео которых удалось достать.[/color]
[spoiler="Номер 1 .11.01.1982, Стив Дэвис против Джона Спенсера ,Лада Классик"][spoiler="MediaInfo"]Общее
Полное имя : D:РелизыМаксимумыНомер 1 .11.01.1982, Стив Дэвис против Джона Спенсера ,Лада Классик.avi
Формат : AVI
Формат/Информация : Audio Video Interleave
Размер файла : 41,1 Мбайт
Продолжительность : 8 м. 13 с.
Общий поток : 699 Кбит/сек

Видео
Идентификатор : 0
Формат : MPEG-4 Visual
Профиль формата : Advanced Simple@L5
Параметр BVOP формата : 2
Параметр QPel формата : Нет
Параметр GMC формата : Без точки перехода
Параметр матрицы формата : Default (H.263)
Режим смешивания : Сжатый битовый поток
Идентификатор кодека : XVID
Идентификатор кодека/Подсказка : XviD
Продолжительность : 8 м. 11 с.
Битрейт : 563 Кбит/сек
Ширина : 720 пикс.
Высота : 416 пикс.
Соотношение сторон : 16:9
Частота кадров : 25,000 кадр/сек
Цветовое пространство : YUV
Подвыборка цветности : 4:2:0
Битовая глубина : 8 бит
Тип развёртки : Прогрессивная
Метод сжатия : С потерями
Бит/(Пиксели*Кадры) : 0.075
Размер потока : 33,0 Мбайт (80%)
Библиотека кодирования : XviD 1.2.1 (UTC 2008-12-04)

Аудио
Идентификатор : 1
Формат : MPEG Audio
Версия формата : Version 1
Профиль формата : Layer 3
Режим : Joint stereo
Расширение режима : MS Stereo
Идентификатор кодека : 55
Идентификатор кодека/Подсказка : MP3
Продолжительность : 8 м. 13 с.
Вид битрейта : Постоянный
Битрейт : 128 Кбит/сек
Каналы : 2 канала
Частота : 44,1 КГц
Метод сжатия : С потерями
Размер потока : 7,51 Мбайт (18%)
Выравнивание : Разделение по промежуткам
Продолжительность промежутка : 40 мс. (1,00 видеокадр)

[/spoiler][/spoiler]
[spoiler="Номер 2. 23.04.1983,Клифф Торбурн против Терри Гриффитса,Чемпионат Мира"][spoiler="MediaInfo"]Общее
Полное имя : D:РелизыМаксимумыНомер 2. 23.04.1983,Клифф Торбурн против Терри Гриффитса,Чемпионат Мира.mpg
Формат : MPEG-PS
Размер файла : 320 Мбайт
Продолжительность : 17 м.
Общий поток : 2635 Кбит/сек
Библиотека кодирования : (c) 1998-2008 Womble Multimedia, Inc. / MPEG Video Wizard (08/2008) / Dec 31 2008

Видео
Идентификатор : 224 (0xE0)
Формат : MPEG Video
Версия формата : Version 2
Профиль формата : Main@Main
Параметр BVOP формата : Да
Параметр матрицы формата : По умолчанию
Параметры GOP формата : M=3, N=12
Продолжительность : 17 м.
Вид битрейта : Переменный
Битрейт : 2358 Кбит/сек
Номинальный битрейт : 8000 Кбит/сек
Ширина : 720 пикс.
Высота : 576 пикс.
Соотношение сторон : 16:9
Частота кадров : 25,000 кадр/сек
Стандарт вещания : PAL
Цветовое пространство : YUV
Подвыборка цветности : 4:2:0
Битовая глубина : 8 бит
Тип развёртки : Прогрессивная
Порядок развёртки : Нижнее поле первое
Метод сжатия : С потерями
Бит/(Пиксели*Кадры) : 0.227
Размер потока : 287 Мбайт (90%)
Библиотека кодирования : (c) 1998-2008 Womble Multimedia, Inc. / MPEG Video Wizard (08/2008) / Dec 31 2008

Аудио
Идентификатор : 192 (0xC0)
Формат : MPEG Audio
Версия формата : Version 1
Профиль формата : Layer 2
Продолжительность : 17 м.
Вид битрейта : Постоянный
Битрейт : 224 Кбит/сек
Каналы : 2 канала
Частота : 44,1 КГц
Метод сжатия : С потерями
Задержка видео : -80 мс.
Размер потока : 27,2 Мбайт (9%)

Меню

[/spoiler][/spoiler]
[spoiler="Номер 3. 28.01.1984, Кирк Стивенс против Джимми Уайта,Чемпионат Мира"][spoiler="MediaInfo"]Общее
Полное имя : D:РелизыМаксимумыНомер 3. 28.01.1984, Кирк Стивенс против Джимми Уайта,Чемпионат Мира.mpg
Формат : MPEG-PS
Размер файла : 295 Мбайт
Продолжительность : 14 м.
Общий поток : 2915 Кбит/сек
Библиотека кодирования : (c) 1998-2008 Womble Multimedia, Inc. / MPEG Video Wizard (08/2008) / Dec 31 2008

Видео
Идентификатор : 224 (0xE0)
Формат : MPEG Video
Версия формата : Version 2
Профиль формата : Main@Main
Параметр BVOP формата : Да
Параметр матрицы формата : По умолчанию
Параметры GOP формата : M=3, N=12
Продолжительность : 14 м.
Вид битрейта : Переменный
Битрейт : 2633 Кбит/сек
Номинальный битрейт : 8000 Кбит/сек
Ширина : 720 пикс.
Высота : 576 пикс.
Соотношение сторон : 16:9
Частота кадров : 25,000 кадр/сек
Стандарт вещания : PAL
Цветовое пространство : YUV
Подвыборка цветности : 4:2:0
Битовая глубина : 8 бит
Тип развёртки : Прогрессивная
Порядок развёртки : Нижнее поле первое
Метод сжатия : С потерями
Бит/(Пиксели*Кадры) : 0.254
Размер потока : 267 Мбайт (90%)
Библиотека кодирования : (c) 1998-2008 Womble Multimedia, Inc. / MPEG Video Wizard (08/2008) / Dec 31 2008

Аудио
Идентификатор : 192 (0xC0)
Формат : MPEG Audio
Версия формата : Version 1
Профиль формата : Layer 2
Продолжительность : 14 м.
Вид битрейта : Постоянный
Битрейт : 224 Кбит/сек
Каналы : 2 канала
Частота : 44,1 КГц
Метод сжатия : С потерями
Задержка видео : -80 мс.
Размер потока : 22,7 Мбайт (8%)

Меню

[/spoiler][/spoiler]
[spoiler="Номер 11. Февраль 1992 .,Джеймс Ваттана против Тони Драго,British Open"][spoiler="MediaInfo"]Общее
Полное имя : D:РелизыМаксимумыНомер 11. Февраль 1992 .,Джеймс Ваттана против Тони Драго,British Open.mp4
Формат : MPEG-4
Профиль формата : Base Media / Version 2
Идентификатор кодека : mp42
Размер файла : 24,1 Мбайт
Продолжительность : 7 м. 59 с.
Общий поток : 422 Кбит/сек
Дата кодирования : UTC 2010-05-08 02:17:48
Дата пометки : UTC 2010-05-08 02:17:48
gsst : 0
gstd : 480420
gssd : B4A7DD082MH1292629023981715
gshh : v2.cache5.c.youtube.com

Видео
Идентификатор : 2
Формат : AVC
Формат/Информация : Advanced Video Codec
Профиль формата : Baseline@L1.3
Параметр CABAC формата : Нет
Параметр ReFrames формата : 1 кадр
Параметры GOP формата : M=1, N=60
Идентификатор кодека : avc1
Идентификатор кодека/Информация : Advanced Video Coding
Продолжительность : 7 м. 59 с.
Вид битрейта : Переменный
Битрейт : 291 Кбит/сек
Максимальный битрейт : 684 Кбит/сек
Ширина : 320 пикс.
Высота : 240 пикс.
Соотношение сторон : 4:3
Режим частоты кадров : Постоянный
Частота кадров : 29,970 кадр/сек
Цветовое пространство : YUV
Подвыборка цветности : 4:2:0
Битовая глубина : 8 бит
Тип развёртки : Прогрессивная
Бит/(Пиксели*Кадры) : 0.126
Размер потока : 16,6 Мбайт (69%)
Заголовок : (C) 2007 Google Inc. v08.13.2007.
Дата кодирования : UTC 2010-05-08 02:17:48
Дата пометки : UTC 2010-05-08 02:17:48

Аудио
Идентификатор : 1
Формат : AAC
Формат/Информация : Advanced Audio Codec
Профиль формата : LC
Идентификатор кодека : 40
Продолжительность : 7 м. 59 с.
Вид битрейта : Переменный
Битрейт : 129 Кбит/сек
Максимальный битрейт : 146 Кбит/сек
Каналы : 2 канала
Расположение каналов : Front: L R
Частота : 44,1 КГц
Метод сжатия : С потерями
Размер потока : 7,36 Мбайт (30%)
Заголовок : (C) 2007 Google Inc. v08.13.2007.
Дата кодирования : UTC 2010-05-08 02:17:48
Дата пометки : UTC 2010-05-08 02:17:48

[/spoiler][/spoiler]
[spoiler="Номер 12. 12.04.1992,Джимми Уайт против Тони Дрэго,Чемпионат Мира"][spoiler="MediaInfo"]Общее
Полное имя : D:РелизыМаксимумыНомер 12. 12.04.1992,Джимми Уайт против Тони Дрэго,Чемпионат Мира.mp4
Формат : MPEG-4
Профиль формата : Base Media / Version 2
Идентификатор кодека : mp42
Размер файла : 32,0 Мбайт
Продолжительность : 10 м.
Общий поток : 437 Кбит/сек
Дата кодирования : UTC 2008-01-17 16:48:21
Дата пометки : UTC 2008-01-17 16:48:21
gsst : 0
gstd : 614360
gssd : B4A7DD0E6HH1292630187478570
gshh : v6.cache8.c.youtube.com

Видео
Идентификатор : 2
Формат : AVC
Формат/Информация : Advanced Video Codec
Профиль формата : Baseline@L2.1
Параметр CABAC формата : Нет
Параметр ReFrames формата : 1 кадр
Идентификатор кодека : avc1
Идентификатор кодека/Информация : Advanced Video Coding
Продолжительность : 10 м.
Вид битрейта : Переменный
Битрейт : 311 Кбит/сек
Максимальный битрейт : 975 Кбит/сек
Ширина : 470 пикс.
Высота : 360 пикс.
Соотношение сторон : 4:3
Режим частоты кадров : Постоянный
Частота кадров : 25,000 кадр/сек
Цветовое пространство : YUV
Подвыборка цветности : 4:2:0
Битовая глубина : 8 бит
Тип развёртки : Прогрессивная
Бит/(Пиксели*Кадры) : 0.073
Размер потока : 22,8 Мбайт (71%)
Заголовок : (C) 2007 Google Inc. v06.24.2007.
Дата кодирования : UTC 2008-01-17 16:48:22
Дата пометки : UTC 2008-01-17 16:48:22

Аудио
Идентификатор : 1
Формат : AAC
Формат/Информация : Advanced Audio Codec
Профиль формата : LC
Идентификатор кодека : 40
Продолжительность : 10 м.
Вид битрейта : Переменный
Битрейт : 124 Кбит/сек
Максимальный битрейт : 149 Кбит/сек
Каналы : 2 канала
Расположение каналов : Front: L R
Частота : 44,1 КГц
Метод сжатия : С потерями
Размер потока : 9,10 Мбайт (28%)
Заголовок : (C) 2007 Google Inc. v06.24.2007.
Дата кодирования : UTC 2008-01-17 16:48:21
Дата пометки : UTC 2008-01-17 16:48:22

[/spoiler][/spoiler]
[spoiler="Номер 17. 27.4.1995,Стивен Хендри против Джимми Уйата,Чемпионат Мира"][spoiler="MediaInfo"]Общее
Полное имя : D:РелизыМаксимумыНомер 17. 27.4.1995,Стивен Хендри против Джимми Уйата,Чемпионат Мира.mp4
Формат : MPEG-4
Профиль формата : Base Media / Version 2
Идентификатор кодека : mp42
Размер файла : 30,0 Мбайт
Продолжительность : 10 м.
Общий поток : 386 Кбит/сек
Дата кодирования : UTC 2009-04-29 10:49:16
Дата пометки : UTC 2009-04-29 10:49:16
gsst : 0
gstd : 653641
gssd : B4A7DD008HH

Видео
Идентификатор : 2
Формат : AVC
Формат/Информация : Advanced Video Codec
Профиль формата : Baseline@L1.1
Параметр CABAC формата : Нет
Параметр ReFrames формата : 1 кадр
Параметры GOP формата : M=1, N=61
Идентификатор кодека : avc1
Идентификатор кодека/Информация : Advanced Video Coding
Продолжительность : 10 м.
Вид битрейта : Переменный
Битрейт : 260 Кбит/сек
Максимальный битрейт : 861 Кбит/сек
Ширина : 400 пикс.
Высота : 240 пикс.
Соотношение сторон : 1,667
Режим частоты кадров : Постоянный
Частота кадров : 25,000 кадр/сек
Цветовое пространство : YUV
Подвыборка цветности : 4:2:0
Битовая глубина : 8 бит
Тип развёртки : Прогрессивная
Бит/(Пиксели*Кадры) : 0.108
Размер потока : 20,2 Мбайт (67%)
Заголовок : (C) 2007 Google Inc. v08.13.2007.
Дата кодирования : UTC 2009-04-29 10:49:16
Дата пометки : UTC 2009-04-29 10:49:16

Аудио
Идентификатор : 1
Формат : AAC
Формат/Информация : Advanced Audio Codec
Профиль формата : LC
Идентификатор кодека : 40
Продолжительность : 10 м.
Вид битрейта : Переменный
Битрейт : 123 Кбит/сек
Максимальный битрейт : 149 Кбит/сек
Каналы : 2 канала
Расположение каналов : Front: L R
Частота : 44,1 КГц
Метод сжатия : С потерями
Размер потока : 9,62 Мбайт (32%)
Заголовок : (C) 2007 Google Inc. v08.13.2007.
Дата кодирования : UTC 2009-04-29 10:49:16
Дата пометки : UTC 2009-04-29 10:49:16

[/spoiler][/spoiler]
[spoiler="Номер 18. 25.11.1995,Стивен Хендри против Гари Уилкинсона,Чемпионат Великобритании"][spoiler="MediaInfo"]Общее
Полное имя : D:РелизыМаксимумыНомер 18. 25.11.1995,Стивен Хендри против Гари Уилкинсона,Чемпионат Великобритании.mp4
Формат : MPEG-4
Профиль формата : Base Media / Version 2
Идентификатор кодека : mp42
Размер файла : 30,8 Мбайт
Продолжительность : 10 м.
Общий поток : 398 Кбит/сек
Дата кодирования : UTC 2011-06-18 19:03:31
Дата пометки : UTC 2011-06-18 19:03:31
gsst : 0
gstd : 649050
gssd : B4A7DDA41MH1317906887488110
gshh : v1.cache3.c.youtube.com

Видео
Идентификатор : 1
Формат : AVC
Формат/Информация : Advanced Video Codec
Профиль формата : Baseline@L3.0
Параметр CABAC формата : Нет
Параметр ReFrames формата : 1 кадр
Параметры GOP формата : M=1, N=58
Идентификатор кодека : avc1
Идентификатор кодека/Информация : Advanced Video Coding
Продолжительность : 10 м.
Вид битрейта : Переменный
Битрейт : 296 Кбит/сек
Максимальный битрейт : 735 Кбит/сек
Ширина : 640 пикс.
Высота : 360 пикс.
Соотношение сторон : 16:9
Режим частоты кадров : Переменный
Частота кадров : 29,970 кадр/сек
Минимальная частота кадров : 29,412 кадр/сек
Максимальная частота кадров : 30,303 кадр/сек
Цветовое пространство : YUV
Подвыборка цветности : 4:2:0
Битовая глубина : 8 бит
Тип развёртки : Прогрессивная
Бит/(Пиксели*Кадры) : 0.043
Размер потока : 22,9 Мбайт (74%)
Дата пометки : UTC 2011-06-18 19:03:56

Аудио
Идентификатор : 2
Формат : AAC
Формат/Информация : Advanced Audio Codec
Профиль формата : LC
Идентификатор кодека : 40
Продолжительность : 10 м.
Вид битрейта : Переменный
Битрейт : 96,0 Кбит/сек
Максимальный битрейт : 155 Кбит/сек
Каналы : 2 канала
Расположение каналов : Front: L R
Частота : 44,1 КГц
Метод сжатия : С потерями
Размер потока : 7,43 Мбайт (24%)
Заголовок : IsoMedia File Produced by Google, 5-11-2011
Дата кодирования : UTC 2011-06-18 19:03:41
Дата пометки : UTC 2011-06-18 19:03:56

[/spoiler][/spoiler]
[spoiler="Номер 19. 05.01.1997,Стивен Хендри против Ронни О'Салливана,решающий фрейм финала Ливерпуль Виктория Черити Челлендж Трофи"][spoiler="MediaInfo"]Общее
Полное имя : D:РелизыМаксимумыНомер 19. 05.01.1997,Стивен Хендри против Ронни О'Салливана,решающий фрейм финала Ливерпуль Виктория Черити Челлендж Трофи.mpg
Формат : MPEG-PS
Размер файла : 386 Мбайт
Продолжительность : 13 м.
Общий поток : 4065 Кбит/сек
Библиотека кодирования : (c) 1998-2008 Womble Multimedia, Inc. / MPEG Video Wizard (08/2008) / Dec 31 2008

Видео
Идентификатор : 224 (0xE0)
Формат : MPEG Video
Версия формата : Version 2
Профиль формата : Main@Main
Параметр BVOP формата : Да
Параметр матрицы формата : По умолчанию
Продолжительность : 13 м.
Вид битрейта : Переменный
Битрейт : 3792 Кбит/сек
Номинальный битрейт : 9608 Кбит/сек
Ширина : 720 пикс.
Высота : 576 пикс.
Соотношение сторон : 4:3
Частота кадров : 25,000 кадр/сек
Стандарт вещания : PAL
Цветовое пространство : YUV
Подвыборка цветности : 4:2:0
Битовая глубина : 8 бит
Тип развёртки : Прогрессивная
Метод сжатия : С потерями
Бит/(Пиксели*Кадры) : 0.366
Размер потока : 360 Мбайт (93%)
Библиотека кодирования : (c) 1998-2008 Womble Multimedia, Inc. / MPEG Video Wizard (08/2008) / Dec 31 2008

Аудио
Идентификатор : 189 (0xBD)-128 (0x80)
Формат : AC-3
Формат/Информация : Audio Coding 3
Расширение режима : CM (complete main)
Режим смешивания : DVD-Video
Продолжительность : 13 м.
Вид битрейта : Постоянный
Битрейт : 192 Кбит/сек
Каналы : 2 канала
Расположение каналов : Front: L R
Частота : 48,0 КГц
Битовая глубина : 16 бит
Метод сжатия : С потерями
Задержка видео : -80 мс.
Размер потока : 18,2 Мбайт (5%)

Меню

[/spoiler][/spoiler]
[spoiler="Номер 20. 21.04.1997 ,Ронни О`Салливан против Майка Прайса, Чемпионат Мира"][spoiler="MediaInfo"]Общее
Полное имя : D:РелизыМаксимумыНомер 20. 21.04.1997 ,Ронни О`Салливан против Майка Прайса, Чемпионат Мира.mpg
Формат : MPEG-PS
Размер файла : 123 Мбайт
Продолжительность : 7 м. 35 с.
Общий поток : 2263 Кбит/сек

Видео
Идентификатор : 224 (0xE0)
Формат : MPEG Video
Версия формата : Version 2
Профиль формата : Main@Main
Параметр BVOP формата : Да
Параметр матрицы формата : По умолчанию
Параметры GOP формата : M=3, N=12
Продолжительность : 7 м. 35 с.
Вид битрейта : Переменный
Битрейт : 1962 Кбит/сек
Номинальный битрейт : 9586 Кбит/сек
Ширина : 352 пикс.
Высота : 576 пикс.
Соотношение сторон : 4:3
Частота кадров : 25,000 кадр/сек
Стандарт вещания : PAL
Цветовое пространство : YUV
Подвыборка цветности : 4:2:0
Битовая глубина : 8 бит
Тип развёртки : Чересстрочная
Порядок развёртки : Верхнее поле первое
Метод сжатия : С потерями
Бит/(Пиксели*Кадры) : 0.387
Размер потока : 106 Мбайт (87%)

Аудио
Идентификатор : 189 (0xBD)-128 (0x80)
Формат : AC-3
Формат/Информация : Audio Coding 3
Расширение режима : CM (complete main)
Режим смешивания : DVD-Video
Продолжительность : 7 м. 34 с.
Вид битрейта : Постоянный
Битрейт : 256 Кбит/сек
Каналы : 2 канала
Расположение каналов : Front: L R
Частота : 48,0 КГц
Битовая глубина : 16 бит
Метод сжатия : С потерями
Задержка видео : -80 мс.
Размер потока : 13,9 Мбайт (11%)

Меню

[/spoiler][/spoiler]
[spoiler="Номер 22. 16.05.1998,Стивен Хендри против Кен Догерти,Премьер Лига"][spoiler="MediaInfo"]Общее
Полное имя : D:РелизыМаксимумыНомер 22. 16.05.1998,Стивен Хендри против Кен Догерти,Премьер Лига.mp4
Формат : MPEG-4
Профиль формата : Base Media / Version 2
Идентификатор кодека : mp42
Размер файла : 33,2 Мбайт
Продолжительность : 10 м.
Общий поток : 463 Кбит/сек
Дата кодирования : UTC 2010-11-05 02:48:43
Дата пометки : UTC 2010-11-05 02:48:43
gsst : 0
gstd : 603021
gssd : B4A7DD086MH1289774162494038
gshh : v6.cache5.c.youtube.com

Видео
Идентификатор : 2
Формат : AVC
Формат/Информация : Advanced Video Codec
Профиль формата : Baseline@L1.3
Параметр CABAC формата : Нет
Параметр ReFrames формата : 1 кадр
Параметры GOP формата : M=1, N=60
Идентификатор кодека : avc1
Идентификатор кодека/Информация : Advanced Video Coding
Продолжительность : 10 м.
Вид битрейта : Переменный
Битрейт : 366 Кбит/сек
Максимальный битрейт : 965 Кбит/сек
Ширина : 322 пикс.
Высота : 240 пикс.
Соотношение сторон : 4:3
Режим частоты кадров : Постоянный
Частота кадров : 29,917 кадр/сек
Цветовое пространство : YUV
Подвыборка цветности : 4:2:0
Битовая глубина : 8 бит
Тип развёртки : Прогрессивная
Бит/(Пиксели*Кадры) : 0.158
Размер потока : 26,3 Мбайт (79%)
Заголовок : (C) 2007 Google Inc. v08.13.2007.
Дата кодирования : UTC 2010-11-05 02:48:44
Дата пометки : UTC 2010-11-05 02:48:44

Аудио
Идентификатор : 1
Формат : AAC
Формат/Информация : Advanced Audio Codec
Профиль формата : LC
Идентификатор кодека : 40
Продолжительность : 10 м.
Вид битрейта : Переменный
Битрейт : 93,5 Кбит/сек
Максимальный битрейт : 105 Кбит/сек
Каналы : 2 канала
Расположение каналов : Front: L R
Частота : 44,1 КГц
Метод сжатия : С потерями
Размер потока : 6,72 Мбайт (20%)
Заголовок : (C) 2007 Google Inc. v08.13.2007.
Дата кодирования : UTC 2010-11-05 02:48:43
Дата пометки : UTC 2010-11-05 02:48:44

[/spoiler][/spoiler]
[spoiler="Номер 26. 29.01.1999 ,Ронни О`Салливан против Джеймса Ваттаны, Открытый Чемпионат Уэльса"][spoiler="MediaInfo"]Общее
Полное имя : D:РелизыМаксимумыНомер 26. 29.01.1999 ,Ронни О`Салливан против Джеймса Ваттаны, Открытый Чемпионат Уэльса.mpg
Формат : MPEG-PS
Размер файла : 131 Мбайт
Продолжительность : 7 м. 57 с.
Общий поток : 2309 Кбит/сек

Видео
Идентификатор : 224 (0xE0)
Формат : MPEG Video
Версия формата : Version 2
Профиль формата : Main@Main
Параметр BVOP формата : Да
Параметр матрицы формата : По умолчанию
Параметры GOP формата : M=3, N=12
Продолжительность : 7 м. 57 с.
Вид битрейта : Переменный
Битрейт : 2007 Кбит/сек
Номинальный битрейт : 9586 Кбит/сек
Ширина : 352 пикс.
Высота : 576 пикс.
Соотношение сторон : 4:3
Частота кадров : 25,000 кадр/сек
Стандарт вещания : PAL
Цветовое пространство : YUV
Подвыборка цветности : 4:2:0
Битовая глубина : 8 бит
Тип развёртки : Чересстрочная
Порядок развёртки : Верхнее поле первое
Метод сжатия : С потерями
Бит/(Пиксели*Кадры) : 0.396
Размер потока : 114 Мбайт (87%)

Аудио
Идентификатор : 189 (0xBD)-128 (0x80)
Формат : AC-3
Формат/Информация : Audio Coding 3
Расширение режима : CM (complete main)
Режим смешивания : DVD-Video
Продолжительность : 7 м. 56 с.
Вид битрейта : Постоянный
Битрейт : 256 Кбит/сек
Каналы : 2 канала
Расположение каналов : Front: L R
Частота : 48,0 КГц
Битовая глубина : 16 бит
Метод сжатия : С потерями
Задержка видео : -80 мс.
Размер потока : 14,5 Мбайт (11%)

Меню

[/spoiler][/spoiler]
[spoiler="Номер 30. 19.9.1999,Стивен Хендри против Питера Эбдона,Бритиш Оупен"][spoiler="MediaInfo"]Общее
Полное имя : D:РелизыМаксимумыНомер 30. 19.9.1999,Стивен Хендри против Питера Эбдона,Бритиш Оупен.avi
Формат : AVI
Формат/Информация : Audio Video Interleave
Размер файла : 37,1 Мбайт
Продолжительность : 11 м.
Общий поток : 434 Кбит/сек

Видео
Идентификатор : 0
Формат : MPEG-4 Visual
Идентификатор кодека : DIV3
Идентификатор кодека/Подсказка : DivX 3 Low
Продолжительность : 11 м.
Битрейт : 368 Кбит/сек
Ширина : 352 пикс.
Высота : 288 пикс.
Соотношение сторон : 1,222
Частота кадров : 25,000 кадр/сек
Стандарт вещания : PAL
Цветовое пространство : YUV
Подвыборка цветности : 4:2:0
Битовая глубина : 8 бит
Метод сжатия : С потерями
Бит/(Пиксели*Кадры) : 0.145
Размер потока : 31,5 Мбайт (85%)

Аудио
Идентификатор : 1
Формат : MPEG Audio
Версия формата : Version 2
Профиль формата : Layer 3
Режим : Joint stereo
Расширение режима : Intensity Stereo
Идентификатор кодека : 55
Идентификатор кодека/Подсказка : MP3
Продолжительность : 11 м.
Вид битрейта : Постоянный
Битрейт : 56,0 Кбит/сек
Каналы : 2 канала
Частота : 24,0 КГц
Метод сжатия : С потерями
Задержка видео : 6 мс.
Размер потока : 4,78 Мбайт (13%)
Выравнивание : Разделение по промежуткам
Продолжительность промежутка : 40 мс. (1,00 видеокадр)

[/spoiler][/spoiler]
[spoiler="Номер 32. 13.10.1999,Ронни О'Салливан против Грэма Дотта,Гран-При"][spoiler="MediaInfo"]Общее
Полное имя : D:РелизыМаксимумыНомер 32. 13.10.1999,Ронни О'Салливан против Грэма Дотта,Гран-При.mpg
Формат : MPEG-PS
Размер файла : 302 Мбайт
Продолжительность : 8 м. 38 с.
Общий поток : 4875 Кбит/сек

Видео
Идентификатор : 224 (0xE0)
Формат : MPEG Video
Версия формата : Version 2
Профиль формата : Main@Main
Параметр BVOP формата : Да
Параметр матрицы формата : По умолчанию
Параметры GOP формата : M=3, N=12
Продолжительность : 8 м. 38 с.
Вид битрейта : Переменный
Битрейт : 4506 Кбит/сек
Ширина : 720 пикс.
Высота : 576 пикс.
Соотношение сторон : 4:3
Частота кадров : 25,000 кадр/сек
Стандарт вещания : PAL
Цветовое пространство : YUV
Подвыборка цветности : 4:2:0
Битовая глубина : 8 бит
Тип развёртки : Чересстрочная
Порядок развёртки : Верхнее поле первое
Метод сжатия : С потерями
Бит/(Пиксели*Кадры) : 0.435
Размер потока : 280 Мбайт (93%)

Аудио
Идентификатор : 189 (0xBD)-128 (0x80)
Формат : AC-3
Формат/Информация : Audio Coding 3
Расширение режима : CM (complete main)
Режим смешивания : DVD-Video
Продолжительность : 8 м. 38 с.
Вид битрейта : Постоянный
Битрейт : 256 Кбит/сек
Каналы : 2 канала
Расположение каналов : Front: L R
Частота : 48,0 КГц
Битовая глубина : 16 бит
Метод сжатия : С потерями
Задержка видео : -359 мс.
Размер потока : 15,8 Мбайт (5%)

Меню

[/spoiler][/spoiler]
[spoiler="Номер 34. 22.11.1999,Стивен Хендри против Пола Уайкса,Чемпионат Великобритании"][spoiler="MediaInfo"]Общее
Полное имя : D:РелизыМаксимумыНомер 34. 22.11.1999,Стивен Хендри против Пола Уайкса,Чемпионат Великобритании.mp4
Формат : MPEG-4
Профиль формата : Base Media / Version 2
Идентификатор кодека : mp42
Размер файла : 31,8 Мбайт
Продолжительность : 9 м. 52 с.
Общий поток : 451 Кбит/сек
Дата кодирования : UTC 2009-02-19 18:30:20
Дата пометки : UTC 2009-02-19 18:30:20
gsst : 0
gstd : 593106
gssd : B4A7DD067HH

Видео
Идентификатор : 2
Формат : AVC
Формат/Информация : Advanced Video Codec
Профиль формата : Baseline@L2.1
Параметр CABAC формата : Нет
Параметр ReFrames формата : 1 кадр
Идентификатор кодека : avc1
Идентификатор кодека/Информация : Advanced Video Coding
Продолжительность : 9 м. 52 с.
Вид битрейта : Переменный
Битрейт : 322 Кбит/сек
Максимальный битрейт : 814 Кбит/сек
Ширина : 480 пикс.
Высота : 272 пикс.
Соотношение сторон : 16:9
Режим частоты кадров : Постоянный
Частота кадров : 29,970 кадр/сек
Цветовое пространство : YUV
Подвыборка цветности : 4:2:0
Битовая глубина : 8 бит
Тип развёртки : Прогрессивная
Бит/(Пиксели*Кадры) : 0.082
Размер потока : 22,8 Мбайт (72%)
Заголовок : (C) 2007 Google Inc. v08.13.2007.
Дата кодирования : UTC 2009-02-19 18:30:20
Дата пометки : UTC 2009-02-19 18:30:21

Аудио
Идентификатор : 1
Формат : AAC
Формат/Информация : Advanced Audio Codec
Профиль формата : LC
Идентификатор кодека : 40
Продолжительность : 9 м. 52 с.
Вид битрейта : Переменный
Битрейт : 125 Кбит/сек
Максимальный битрейт : 147 Кбит/сек
Каналы : 2 канала
Расположение каналов : Front: L R
Частота : 44,1 КГц
Метод сжатия : С потерями
Размер потока : 8,87 Мбайт (28%)
Заголовок : (C) 2007 Google Inc. v08.13.2007.
Дата кодирования : UTC 2009-02-19 18:30:20
Дата пометки : UTC 2009-02-19 18:30:21

[/spoiler][/spoiler]
[spoiler="Номер 35 .21.01. 2000 ,Джон Хиггинс против Дэнниса Тэйлора, Кубок Наций"][spoiler="MediaInfo"]Общее
Полное имя : D:РелизыМаксимумыНомер 35 .21.01. 2000 ,Джон Хиггинс против Дэнниса Тэйлора, Кубок Наций.mpg
Формат : MPEG-PS
Размер файла : 188 Мбайт
Продолжительность : 11 м.
Общий поток : 2240 Кбит/сек

Видео
Идентификатор : 224 (0xE0)
Формат : MPEG Video
Версия формата : Version 2
Профиль формата : Main@Main
Параметр BVOP формата : Да
Параметр матрицы формата : По умолчанию
Параметры GOP формата : M=3, N=12
Продолжительность : 11 м.
Вид битрейта : Переменный
Битрейт : 1940 Кбит/сек
Номинальный битрейт : 9586 Кбит/сек
Ширина : 352 пикс.
Высота : 576 пикс.
Соотношение сторон : 4:3
Частота кадров : 25,000 кадр/сек
Стандарт вещания : PAL
Цветовое пространство : YUV
Подвыборка цветности : 4:2:0
Битовая глубина : 8 бит
Тип развёртки : Чересстрочная
Порядок развёртки : Верхнее поле первое
Метод сжатия : С потерями
Бит/(Пиксели*Кадры) : 0.383
Размер потока : 163 Мбайт (87%)

Аудио
Идентификатор : 189 (0xBD)-128 (0x80)
Формат : AC-3
Формат/Информация : Audio Coding 3
Расширение режима : CM (complete main)
Режим смешивания : DVD-Video
Продолжительность : 11 м.
Вид битрейта : Постоянный
Битрейт : 256 Кбит/сек
Каналы : 2 канала
Расположение каналов : Front: L R
Частота : 48,0 КГц
Битовая глубина : 16 бит
Метод сжатия : С потерями
Задержка видео : -80 мс.
Размер потока : 21,5 Мбайт (11%)

Меню

[/spoiler][/spoiler]
[spoiler="Номер 36.03.2000,Джон Хиггинс против Джимми Уайта ,Irish Masters"][spoiler="MediaInfo"]Общее
Полное имя : D:РелизыМаксимумыНомер 35 .21.01. 2000 ,Джон Хиггинс против Дэнниса Тэйлора, Кубок Наций.mpg
Формат : MPEG-PS
Размер файла : 188 Мбайт
Продолжительность : 11 м.
Общий поток : 2240 Кбит/сек

Видео
Идентификатор : 224 (0xE0)
Формат : MPEG Video
Версия формата : Version 2
Профиль формата : Main@Main
Параметр BVOP формата : Да
Параметр матрицы формата : По умолчанию
Параметры GOP формата : M=3, N=12
Продолжительность : 11 м.
Вид битрейта : Переменный
Битрейт : 1940 Кбит/сек
Номинальный битрейт : 9586 Кбит/сек
Ширина : 352 пикс.
Высота : 576 пикс.
Соотношение сторон : 4:3
Частота кадров : 25,000 кадр/сек
Стандарт вещания : PAL
Цветовое пространство : YUV
Подвыборка цветности : 4:2:0
Битовая глубина : 8 бит
Тип развёртки : Чересстрочная
Порядок развёртки : Верхнее поле первое
Метод сжатия : С потерями
Бит/(Пиксели*Кадры) : 0.383
Размер потока : 163 Мбайт (87%)

Аудио
Идентификатор : 189 (0xBD)-128 (0x80)
Формат : AC-3
Формат/Информация : Audio Coding 3
Расширение режима : CM (complete main)
Режим смешивания : DVD-Video
Продолжительность : 11 м.
Вид битрейта : Постоянный
Битрейт : 256 Кбит/сек
Каналы : 2 канала
Расположение каналов : Front: L R
Частота : 48,0 КГц
Битовая глубина : 16 бит
Метод сжатия : С потерями
Задержка видео : -80 мс.
Размер потока : 21,5 Мбайт (11%)

Меню

[/spoiler][/spoiler]
[spoiler="Номер 38. 05.04.2000,Ронни О'Салливан против Квинтена Ханна,Открытый Чемпионат Шотландии"][spoiler="MediaInfo"]Общее
Полное имя : D:РелизыМаксимумыНомер 38. 05.04.2000,Ронни О'Салливан против Квинтена Ханна,Открытый Чемпионат Шотландии.mpg
Формат : MPEG-PS
Размер файла : 180 Мбайт
Продолжительность : 7 м. 40 с.
Общий поток : 3268 Кбит/сек

Видео
Идентификатор : 224 (0xE0)
Формат : MPEG Video
Версия формата : Version 2
Профиль формата : Main@Main
Параметр BVOP формата : Да
Параметр матрицы формата : По умолчанию
Параметры GOP формата : M=2, N=12
Продолжительность : 7 м. 40 с.
Вид битрейта : Переменный
Битрейт : 3011 Кбит/сек
Номинальный битрейт : 9800 Кбит/сек
Ширина : 352 пикс.
Высота : 576 пикс.
Соотношение сторон : 4:3
Частота кадров : 25,000 кадр/сек
Стандарт вещания : PAL
Цветовое пространство : YUV
Подвыборка цветности : 4:2:0
Битовая глубина : 8 бит
Тип развёртки : Чересстрочная
Порядок развёртки : Верхнее поле первое
Метод сжатия : С потерями
Бит/(Пиксели*Кадры) : 0.594
Размер потока : 165 Мбайт (92%)

Аудио
Идентификатор : 189 (0xBD)-128 (0x80)
Формат : AC-3
Формат/Информация : Audio Coding 3
Расширение режима : CM (complete main)
Режим смешивания : DVD-Video
Продолжительность : 7 м. 40 с.
Вид битрейта : Постоянный
Битрейт : 192 Кбит/сек
Каналы : 2 канала
Расположение каналов : Front: L R
Частота : 48,0 КГц
Битовая глубина : 16 бит
Метод сжатия : С потерями
Задержка видео : -40 мс.
Размер потока : 10,5 Мбайт (6%)

Меню

[/spoiler][/spoiler]
[spoiler="Номер 42 .25 .02.2001, Стивен Хендри против Марка Уильямса, Гран При Мальты"][spoiler="MediaInfo"]Общее
Полное имя : D:РелизыМаксимумыНомер 42 .25 .02.2001, Стивен Хендри против Марка Уильямса, Гран При Мальты.mp4
Формат : MPEG-4
Профиль формата : Base Media / Version 2
Идентификатор кодека : mp42
Размер файла : 25,2 Мбайт
Продолжительность : 9 м. 44 с.
Общий поток : 362 Кбит/сек
Дата кодирования : UTC 2011-10-10 11:31:37
Дата пометки : UTC 2011-10-10 11:31:37
gsst : 0
gstd : 584416
gssd : B4A7DDA63MH1319613018127300
gshh : v3.cache4.c.youtube.com

Видео
Идентификатор : 1
Формат : AVC
Формат/Информация : Advanced Video Codec
Профиль формата : Baseline@L1.3
Параметр CABAC формата : Нет
Параметр ReFrames формата : 1 кадр
Параметры GOP формата : M=1, N=48
Идентификатор кодека : avc1
Идентификатор кодека/Информация : Advanced Video Coding
Продолжительность : 9 м. 44 с.
Вид битрейта : Переменный
Битрейт : 260 Кбит/сек
Максимальный битрейт : 656 Кбит/сек
Ширина : 320 пикс.
Высота : 240 пикс.
Соотношение сторон : 4:3
Режим частоты кадров : Переменный
Частота кадров : 29,970 кадр/сек
Минимальная частота кадров : 29,412 кадр/сек
Максимальная частота кадров : 30,303 кадр/сек
Цветовое пространство : YUV
Подвыборка цветности : 4:2:0
Битовая глубина : 8 бит
Тип развёртки : Прогрессивная
Бит/(Пиксели*Кадры) : 0.113
Размер потока : 18,1 Мбайт (72%)
Дата пометки : UTC 2011-10-10 11:31:40

Аудио
Идентификатор : 2
Формат : AAC
Формат/Информация : Advanced Audio Codec
Профиль формата : LC
Идентификатор кодека : 40
Продолжительность : 9 м. 44 с.
Вид битрейта : Переменный
Битрейт : 96,0 Кбит/сек
Максимальный битрейт : 113 Кбит/сек
Каналы : 2 канала
Расположение каналов : Front: L R
Частота : 44,1 КГц
Метод сжатия : С потерями
Размер потока : 6,69 Мбайт (27%)
Заголовок : IsoMedia File Produced by Google, 5-11-2011
Дата кодирования : UTC 2011-10-10 11:31:38
Дата пометки : UTC 2011-10-10 11:31:40

[/spoiler][/spoiler]
[spoiler="Номер 43. 17.10.2001, Ронни О`Салливан против Дрю Хенри ,LG Cup"][spoiler="MediaInfo"]Общее
Полное имя : D:РелизыМаксимумыНомер 43. 17.10.2001, Ронни О`Салливан против Дрю Хенри ,LG Cup.mpg
Формат : MPEG-PS
Размер файла : 217 Мбайт
Продолжительность : 9 м. 0 с.
Общий поток : 3371 Кбит/сек

Видео
Идентификатор : 224 (0xE0)
Формат : MPEG Video
Версия формата : Version 2
Профиль формата : Main@Main
Параметр BVOP формата : Да
Параметр матрицы формата : По умолчанию
Параметры GOP формата : M=2, N=12
Продолжительность : 9 м. 0 с.
Вид битрейта : Переменный
Битрейт : 3112 Кбит/сек
Номинальный битрейт : 9800 Кбит/сек
Ширина : 352 пикс.
Высота : 576 пикс.
Соотношение сторон : 4:3
Частота кадров : 25,000 кадр/сек
Стандарт вещания : PAL
Цветовое пространство : YUV
Подвыборка цветности : 4:2:0
Битовая глубина : 8 бит
Тип развёртки : Чересстрочная
Порядок развёртки : Верхнее поле первое
Метод сжатия : С потерями
Бит/(Пиксели*Кадры) : 0.614
Размер потока : 200 Мбайт (92%)

Аудио
Идентификатор : 189 (0xBD)-128 (0x80)
Формат : AC-3
Формат/Информация : Audio Coding 3
Расширение режима : CM (complete main)
Режим смешивания : DVD-Video
Продолжительность : 8 м. 59 с.
Вид битрейта : Постоянный
Битрейт : 192 Кбит/сек
Каналы : 2 канала
Расположение каналов : Front: L R
Частота : 48,0 КГц
Битовая глубина : 16 бит
Метод сжатия : С потерями
Задержка видео : -40 мс.
Размер потока : 12,4 Мбайт (6%)

Меню

[/spoiler][/spoiler]
[spoiler="Номер 46. 22.04.2003, Ронни О`Салливан против Марко Фу,Чемпионат Мира"][spoiler="MediaInfo"]Общее
Полное имя : D:РелизыМаксимумыНомер 46. 22.04.2003, Ронни О`Салливан против Марко Фу,Чемпионат Мира.mpg
Формат : MPEG-PS
Размер файла : 136 Мбайт
Продолжительность : 8 м. 23 с.
Общий поток : 2265 Кбит/сек

Видео
Идентификатор : 224 (0xE0)
Формат : MPEG Video
Версия формата : Version 2
Профиль формата : Main@Main
Параметр BVOP формата : Да
Параметр матрицы формата : По умолчанию
Параметры GOP формата : M=3, N=12
Продолжительность : 8 м. 23 с.
Вид битрейта : Переменный
Битрейт : 1964 Кбит/сек
Номинальный битрейт : 9586 Кбит/сек
Ширина : 352 пикс.
Высота : 576 пикс.
Соотношение сторон : 4:3
Частота кадров : 25,000 кадр/сек
Стандарт вещания : PAL
Цветовое пространство : YUV
Подвыборка цветности : 4:2:0
Битовая глубина : 8 бит
Тип развёртки : Чересстрочная
Порядок развёртки : Верхнее поле первое
Метод сжатия : С потерями
Бит/(Пиксели*Кадры) : 0.387
Размер потока : 118 Мбайт (87%)

Аудио
Идентификатор : 189 (0xBD)-128 (0x80)
Формат : AC-3
Формат/Информация : Audio Coding 3
Расширение режима : CM (complete main)
Режим смешивания : DVD-Video
Продолжительность : 8 м. 23 с.
Вид битрейта : Постоянный
Битрейт : 256 Кбит/сек
Каналы : 2 канала
Расположение каналов : Front: L R
Частота : 48,0 КГц
Битовая глубина : 16 бит
Метод сжатия : С потерями
Задержка видео : -80 мс.
Размер потока : 15,4 Мбайт (11%)

Меню

[/spoiler][/spoiler]
[spoiler="Номер 47. 12.10.2003, Джон Хиггинс против Марка Уильямса, LG Cup"][spoiler="MediaInfo"]Общее
Полное имя : D:РелизыМаксимумыНомер 47. 12.10.2003, Джон Хиггинс против Марка Уильямса, LG Cup.mpg
Формат : MPEG-PS
Размер файла : 222 Мбайт
Продолжительность : 13 м.
Общий поток : 2284 Кбит/сек

Видео
Идентификатор : 224 (0xE0)
Формат : MPEG Video
Версия формата : Version 2
Профиль формата : Main@Main
Параметр BVOP формата : Да
Параметр матрицы формата : По умолчанию
Параметры GOP формата : M=3, N=12
Продолжительность : 13 м.
Вид битрейта : Переменный
Битрейт : 1982 Кбит/сек
Номинальный битрейт : 9586 Кбит/сек
Ширина : 352 пикс.
Высота : 576 пикс.
Соотношение сторон : 4:3
Частота кадров : 25,000 кадр/сек
Стандарт вещания : PAL
Цветовое пространство : YUV
Подвыборка цветности : 4:2:0
Битовая глубина : 8 бит
Тип развёртки : Чересстрочная
Порядок развёртки : Верхнее поле первое
Метод сжатия : С потерями
Бит/(Пиксели*Кадры) : 0.391
Размер потока : 193 Мбайт (87%)

Аудио
Идентификатор : 189 (0xBD)-128 (0x80)
Формат : AC-3
Формат/Информация : Audio Coding 3
Расширение режима : CM (complete main)
Режим смешивания : DVD-Video
Продолжительность : 13 м.
Вид битрейта : Постоянный
Битрейт : 256 Кбит/сек
Каналы : 2 канала
Расположение каналов : Front: L R
Частота : 48,0 КГц
Битовая глубина : 16 бит
Метод сжатия : С потерями
Задержка видео : -80 мс.
Размер потока : 24,9 Мбайт (11%)

Меню

[/spoiler][/spoiler]
[spoiler="Номер 48. 12.11.2003 ,Джон Хиггинс против Майкла Джаджа, British Open"][spoiler="MediaInfo"]Общее
Полное имя : D:РелизыМаксимумыНомер 48. 12.11.2003 ,Джон Хиггинс против Майкла Джаджа, British Open.mpg
Формат : MPEG-PS
Размер файла : 267 Мбайт
Продолжительность : 16 м.
Общий поток : 2276 Кбит/сек

Видео
Идентификатор : 224 (0xE0)
Формат : MPEG Video
Версия формата : Version 2
Профиль формата : Main@Main
Параметр BVOP формата : Да
Параметр матрицы формата : По умолчанию
Параметры GOP формата : M=3, N=12
Продолжительность : 16 м.
Вид битрейта : Переменный
Битрейт : 1974 Кбит/сек
Номинальный битрейт : 9586 Кбит/сек
Ширина : 352 пикс.
Высота : 576 пикс.
Соотношение сторон : 4:3
Частота кадров : 25,000 кадр/сек
Стандарт вещания : PAL
Цветовое пространство : YUV
Подвыборка цветности : 4:2:0
Битовая глубина : 8 бит
Тип развёртки : Чересстрочная
Порядок развёртки : Верхнее поле первое
Метод сжатия : С потерями
Бит/(Пиксели*Кадры) : 0.390
Размер потока : 232 Мбайт (87%)

Аудио
Идентификатор : 189 (0xBD)-128 (0x80)
Формат : AC-3
Формат/Информация : Audio Coding 3
Расширение режима : CM (complete main)
Режим смешивания : DVD-Video
Продолжительность : 16 м.
Вид битрейта : Постоянный
Битрейт : 256 Кбит/сек
Каналы : 2 канала
Расположение каналов : Front: L R
Частота : 48,0 КГц
Битовая глубина : 16 бит
Метод сжатия : С потерями
Задержка видео : -80 мс.
Размер потока : 30,1 Мбайт (11%)

Меню

[/spoiler][/spoiler]
[spoiler="Номер 49 . 4.10.2004, Джон Хиггинс против Рикки Уолдена, Гран При"][spoiler="MediaInfo"]Общее
Полное имя : D:РелизыМаксимумыНомер 49 . 4.10.2004, Джон Хиггинс против Рикки Уолдена, Гран При.mpg
Формат : MPEG-PS
Размер файла : 274 Мбайт
Продолжительность : 11 м.
Общий поток : 3299 Кбит/сек
Библиотека кодирования : encoded by TMPGEnc 3.0 XPress Version. 3.0.4.24

Видео
Идентификатор : 224 (0xE0)
Формат : MPEG Video
Версия формата : Version 2
Профиль формата : Main@Main
Параметр BVOP формата : Да
Параметр матрицы формата : По умолчанию
Параметры GOP формата : M=3, N=13
Продолжительность : 11 м.
Вид битрейта : Переменный
Битрейт : 2977 Кбит/сек
Номинальный битрейт : 9198 Кбит/сек
Ширина : 352 пикс.
Высота : 576 пикс.
Соотношение сторон : 4:3
Частота кадров : 25,000 кадр/сек
Стандарт вещания : PAL
Цветовое пространство : YUV
Подвыборка цветности : 4:2:0
Битовая глубина : 8 бит
Тип развёртки : Чересстрочная
Порядок развёртки : Верхнее поле первое
Метод сжатия : С потерями
Бит/(Пиксели*Кадры) : 0.587
Размер потока : 247 Мбайт (90%)
Библиотека кодирования : TMPGEnc 3.0 XPress Version. 3.0.4.24

Аудио
Идентификатор : 189 (0xBD)-128 (0x80)
Формат : AC-3
Формат/Информация : Audio Coding 3
Расширение режима : CM (complete main)
Режим смешивания : DVD-Video
Продолжительность : 11 м.
Вид битрейта : Постоянный
Битрейт : 256 Кбит/сек
Каналы : 2 канала
Расположение каналов : Front: L R
Частота : 48,0 КГц
Битовая глубина : 16 бит
Метод сжатия : С потерями
Размер потока : 21,2 Мбайт (8%)

[/spoiler][/spoiler]
[spoiler="Номер 51. 20.04.2005, Марк Уильямс против Роберта Милкинса, Чемпионат Мира"][spoiler="MediaInfo"]Общее
Полное имя : D:РелизыМаксимумыНомер 51. 20.04.2005, Марк Уильямс против Роберта Милкинса, Чемпионат Мира.mpg
Формат : MPEG-PS
Размер файла : 197 Мбайт
Продолжительность : 10 м.
Общий поток : 2650 Кбит/сек

Видео
Идентификатор : 224 (0xE0)
Формат : MPEG Video
Версия формата : Version 2
Профиль формата : Main@Main
Параметр BVOP формата : Да
Параметр матрицы формата : По умолчанию
Параметры GOP формата : M=3, N=12
Продолжительность : 10 м.
Вид битрейта : Переменный
Битрейт : 2470 Кбит/сек
Ширина : 720 пикс.
Высота : 576 пикс.
Соотношение сторон : 4:3
Частота кадров : 25,000 кадр/сек
Стандарт вещания : PAL
Цветовое пространство : YUV
Подвыборка цветности : 4:2:0
Битовая глубина : 8 бит
Тип развёртки : Прогрессивная
Порядок развёртки : Верхнее поле первое
Метод сжатия : С потерями
Бит/(Пиксели*Кадры) : 0.238
Размер потока : 184 Мбайт (93%)

Аудио
Идентификатор : 192 (0xC0)
Формат : MPEG Audio
Версия формата : Version 1
Профиль формата : Layer 2
Продолжительность : 10 м.
Вид битрейта : Постоянный
Битрейт : 128 Кбит/сек
Каналы : 1 канал
Частота : 48,0 КГц
Метод сжатия : С потерями
Размер потока : 9,53 Мбайт (5%)

Меню

[/spoiler][/spoiler]
[spoiler="Номер 55, 14.01.2007,Дин Джунху против Энтони Хэмилтона, Мастерс"][spoiler="MediaInfo"]Общее
Полное имя : D:РелизыМаксимумыНомер 55, 14.01.2007,Дин Джунху против Энтони Хэмилтона, Мастерс.avi
Формат : AVI
Формат/Информация : Audio Video Interleave
Размер файла : 125 Мбайт
Продолжительность : 12 м.
Общий поток : 1441 Кбит/сек

Видео
Идентификатор : 0
Формат : MPEG-4 Visual
Параметр BVOP формата : 1
Параметр QPel формата : Нет
Параметр GMC формата : Без точки перехода
Параметр матрицы формата : Default (H.263)
Режим смешивания : Сжатый битовый поток
Идентификатор кодека : DX50
Идентификатор кодека/Подсказка : DivX 5
Продолжительность : 12 м.
Битрейт : 1303 Кбит/сек
Ширина : 704 пикс.
Высота : 402 пикс.
Соотношение сторон : 16:9
Частота кадров : 25,000 кадр/сек
Цветовое пространство : YUV
Подвыборка цветности : 4:2:0
Битовая глубина : 8 бит
Тип развёртки : Прогрессивная
Метод сжатия : С потерями
Бит/(Пиксели*Кадры) : 0.184
Размер потока : 113 Мбайт (90%)
Библиотека кодирования : DivX 1968

Аудио
Идентификатор : 1
Формат : MPEG Audio
Версия формата : Version 1
Профиль формата : Layer 3
Режим : Joint stereo
Расширение режима : MS Stereo
Идентификатор кодека : 55
Идентификатор кодека/Подсказка : MP3
Продолжительность : 12 м.
Вид битрейта : Постоянный
Битрейт : 128 Кбит/сек
Каналы : 2 канала
Частота : 44,1 КГц
Метод сжатия : С потерями
Размер потока : 11,1 Мбайт (9%)
Выравнивание : Разделение по промежуткам
Продолжительность промежутка : 40 мс. (1,00 видеокадр)
Время предзагрузки промежутка : 500 ms

[/spoiler][/spoiler]
[spoiler="Номер 59. 08.11.2007,Ронни О'Салливан против Али Картера,Кубок Северной Ирландии"][spoiler="MediaInfo"]Общее
Полное имя : D:РелизыМаксимумыНомер 56. 15.02.2007, Эндрю Хиггинсон против Али Картера, Открытый Чемпионат Уэльса.avi
Формат : AVI
Формат/Информация : Audio Video Interleave
Размер файла : 69,2 Мбайт
Продолжительность : 12 м.
Общий поток : 766 Кбит/сек
Программа кодирования : Lavf50.5.0
Библиотека кодирования : VirtualDub build 24442/release

Видео
Идентификатор : 0
Формат : MPEG-4 Visual
Профиль формата : Simple@L1
Параметр BVOP формата : Нет
Параметр QPel формата : Нет
Параметр GMC формата : Без точки перехода
Параметр матрицы формата : Default (H.263)
Идентификатор кодека : DIVX
Идентификатор кодека/Информация : Project Mayo
Идентификатор кодека/Подсказка : DivX 4
Продолжительность : 12 м.
Битрейт : 660 Кбит/сек
Ширина : 512 пикс.
Высота : 384 пикс.
Соотношение сторон : 4:3
Частота кадров : 25,000 кадр/сек
Цветовое пространство : YUV
Подвыборка цветности : 4:2:0
Битовая глубина : 8 бит
Тип развёртки : Прогрессивная
Метод сжатия : С потерями
Бит/(Пиксели*Кадры) : 0.134
Размер потока : 59,7 Мбайт (86%)
Библиотека кодирования : Lavc51.16.0

Аудио
Идентификатор : 1
Формат : MPEG Audio
Версия формата : Version 1
Профиль формата : Layer 3
Режим : Joint stereo
Расширение режима : MS Stereo
Идентификатор кодека : 55
Идентификатор кодека/Подсказка : MP3
Продолжительность : 12 м.
Вид битрейта : Постоянный
Битрейт : 96,0 Кбит/сек
Каналы : 2 канала
Частота : 44,1 КГц
Метод сжатия : С потерями
Размер потока : 8,68 Мбайт (13%)
Выравнивание : Разделение по промежуткам
Продолжительность промежутка : 40 мс. (1,00 видеокадр)
Время предзагрузки промежутка : 500 ms

[/spoiler][/spoiler]
[spoiler="Номер 60. 12.15.2007, Ронни О'Салливан против Марка Сэлби,Чемпионат Великобритании."][spoiler="MediaInfo"]Общее
Полное имя : D:РелизыМаксимумыНомер 59. 08.11.2007,Ронни О'Салливан против Али Картера,Кубок Северной Ирландии.mpg
Формат : MPEG-PS
Размер файла : 352 Мбайт
Продолжительность : 7 м. 48 с.
Общий поток : 6306 Кбит/сек
Библиотека кодирования : encoded by TMPGEnc 4.0 XPress Version. 4.3.1.222

Видео
Идентификатор : 224 (0xE0)
Формат : MPEG Video
Версия формата : Version 2
Профиль формата : Main@Main
Параметр BVOP формата : Да
Параметр матрицы формата : По умолчанию
Параметры GOP формата : M=3, N=13
Продолжительность : 7 м. 48 с.
Вид битрейта : Постоянный
Битрейт : 6000 Кбит/сек
Ширина : 352 пикс.
Высота : 576 пикс.
Соотношение сторон : 4:3
Частота кадров : 25,000 кадр/сек
Стандарт вещания : PAL
Цветовое пространство : YUV
Подвыборка цветности : 4:2:0
Битовая глубина : 8 бит
Тип развёртки : Чересстрочная
Порядок развёртки : Верхнее поле первое
Метод сжатия : С потерями
Бит/(Пиксели*Кадры) : 1.184
Размер потока : 332 Мбайт (94%)
Библиотека кодирования : TMPGEnc XPress 4.3.1.222

Аудио
Идентификатор : 192 (0xC0)
Формат : MPEG Audio
Версия формата : Version 1
Профиль формата : Layer 2
Продолжительность : 7 м. 48 с.
Вид битрейта : Постоянный
Битрейт : 224 Кбит/сек
Каналы : 2 канала
Частота : 48,0 КГц
Метод сжатия : С потерями
Размер потока : 12,5 Мбайт (4%)

[/spoiler][/spoiler]
[spoiler="Номер 61. 29.03.2008, Стивен Магуайр против Райана Дэя, Открытый Чемпионат Китая"][spoiler="MediaInfo"]Общее
Полное имя : D:РелизыМаксимумыНомер 60. 12.15.2007, Ронни О'Салливан против Марка Сэлби,Чемпионат Великобритании..mp4
Формат : MPEG-4
Профиль формата : Base Media
Идентификатор кодека : isom
Размер файла : 100 Мбайт
Продолжительность : 10 м.
Общий поток : 1317 Кбит/сек
Дата кодирования : UTC 2008-02-23 14:10:37
Дата пометки : UTC 2008-02-23 14:10:37

Видео
Идентификатор : 1
Формат : AVC
Формат/Информация : Advanced Video Codec
Профиль формата : High@L5.1
Параметр CABAC формата : Да
Параметр ReFrames формата : 10 кадров
Идентификатор кодека : avc1
Идентификатор кодека/Информация : Advanced Video Coding
Продолжительность : 10 м.
Вид битрейта : Переменный
Битрейт : 1237 Кбит/сек
Максимальный битрейт : 3162 Кбит/сек
Ширина : 704 пикс.
Высота : 400 пикс.
Соотношение сторон : 16:9
Режим частоты кадров : Постоянный
Частота кадров : 50,000 кадр/сек
Цветовое пространство : YUV
Подвыборка цветности : 4:2:0
Битовая глубина : 8 бит
Тип развёртки : Прогрессивная
Бит/(Пиксели*Кадры) : 0.088
Размер потока : 94,0 Мбайт (94%)
Заголовок : Snooker UK Championship 2007 - SF - Ronnie O'Sullivan vs Mark Selby Frame 17
Библиотека кодирования : x264 core 58 svn-736
Настройки программы : cabac=1 / ref=10 / deblock=1:0:0 / analyse=0x3:0x133 / me=umh / subme=6 / brdo=1 / mixed_ref=1 / me_range=16 / chroma_me=1 / trellis=2 / 8x8dct=1 / cqm=0 / deadzone=21,11 / chroma_qp_offset=0 / threads=6 / nr=0 / decimate=1 / mbaff=0 / bframes=3 / b_pyramid=1 / b_adapt=1 / b_bias=0 / direct=3 / wpredb=1 / bime=1 / keyint=250 / keyint_min=25 / scenecut=40(pre) / rc=2pass / bitrate=1237 / ratetol=1.0 / rceq='blurCplx^(1-qComp)' / qcomp=0.60 / qpmin=10 / qpmax=51 / qpstep=4 / cplxblur=20.0 / qblur=0.5 / ip_ratio=1.40 / pb_ratio=1.30
Язык : English
Дата кодирования : UTC 2008-02-23 12:44:54
Дата пометки : UTC 2008-02-23 14:10:39

Аудио
Идентификатор : 2
Формат : AAC
Формат/Информация : Advanced Audio Codec
Профиль формата : HE-AAC / LC
Идентификатор кодека : 40
Продолжительность : 10 м.
Вид битрейта : Переменный
Битрейт : 75,0 Кбит/сек
Максимальный битрейт : 93,2 Кбит/сек
Каналы : 2 канала
Расположение каналов : Front: L R
Частота : 48,0 КГц / 24,0 КГц
Метод сжатия : С потерями
Размер потока : 5,70 Мбайт (6%)
Язык : English
Дата кодирования : UTC 2008-02-23 14:10:38
Дата пометки : UTC 2008-02-23 14:10:39

[/spoiler][/spoiler]
[spoiler="Номер 62. 28.04.2008 ,Ронни О`Салливан против Марка Уильямса, Чемпионат Мира"][spoiler="MediaInfo"]Общее
Полное имя : D:РелизыМаксимумыНомер 61. 29.03.2008, Стивен Магуайр против Райана Дэя, Открытый Чемпионат Китая.avi
Формат : AVI
Формат/Информация : Audio Video Interleave
Размер файла : 29,9 Мбайт
Продолжительность : 13 м.
Общий поток : 304 Кбит/сек

Видео
Идентификатор : 0
Формат : MPEG-4 Visual
Профиль формата : Advanced Simple@L5
Параметр BVOP формата : 2
Параметр QPel формата : Нет
Параметр GMC формата : Без точки перехода
Параметр матрицы формата : Default (H.263)
Режим смешивания : Сжатый битовый поток
Идентификатор кодека : XVID
Идентификатор кодека/Подсказка : XviD
Продолжительность : 13 м.
Битрейт : 167 Кбит/сек
Ширина : 512 пикс.
Высота : 344 пикс.
Соотношение сторон : 3:2
Частота кадров : 25,000 кадр/сек
Цветовое пространство : YUV
Подвыборка цветности : 4:2:0
Битовая глубина : 8 бит
Тип развёртки : Прогрессивная
Метод сжатия : С потерями
Бит/(Пиксели*Кадры) : 0.038
Размер потока : 16,4 Мбайт (55%)
Библиотека кодирования : XviD 1.2.1 (UTC 2008-12-04)

Аудио
Идентификатор : 1
Формат : MPEG Audio
Версия формата : Version 1
Профиль формата : Layer 3
Режим : Joint stereo
Расширение режима : MS Stereo
Идентификатор кодека : 55
Идентификатор кодека/Подсказка : MP3
Продолжительность : 13 м.
Вид битрейта : Постоянный
Битрейт : 128 Кбит/сек
Каналы : 2 канала
Частота : 44,1 КГц
Метод сжатия : С потерями
Размер потока : 12,6 Мбайт (42%)
Выравнивание : Разделение по промежуткам
Продолжительность промежутка : 40 мс. (1,00 видеокадр)

[/spoiler][/spoiler]
[spoiler="Номер 63. 29.04.2008, Али Картер против Питера Эбдона, Чемпионат Мира"][spoiler="MediaInfo"]Общее
Полное имя : D:РелизыМаксимумыНомер 62. 28.04.2008 ,Ронни О`Салливан против Марка Уильямса, Чемпионат Мира.avi
Формат : AVI
Формат/Информация : Audio Video Interleave
Размер файла : 139 Мбайт
Продолжительность : 12 м.
Общий поток : 1502 Кбит/сек
Программа кодирования : VirtualDubMod 1.5.4.1 (build 2178/release)
Библиотека кодирования : VirtualDubMod build 2178/release

Видео
Идентификатор : 0
Формат : MPEG-4 Visual
Профиль формата : Advanced Simple@L5
Параметр BVOP формата : 1
Параметр QPel формата : Нет
Параметр GMC формата : Без точки перехода
Параметр матрицы формата : Выборочная
Идентификатор кодека : XVID
Идентификатор кодека/Подсказка : XviD
Продолжительность : 12 м.
Битрейт : 1366 Кбит/сек
Ширина : 720 пикс.
Высота : 544 пикс.
Соотношение сторон : 4:3
Частота кадров : 25,000 кадр/сек
Цветовое пространство : YUV
Подвыборка цветности : 4:2:0
Битовая глубина : 8 бит
Тип развёртки : Прогрессивная
Метод сжатия : С потерями
Бит/(Пиксели*Кадры) : 0.140
Размер потока : 127 Мбайт (91%)
Библиотека кодирования : XviD 1.2.0.dev47 (UTC 2006-11-01)

Аудио
Идентификатор : 1
Формат : MPEG Audio
Версия формата : Version 1
Профиль формата : Layer 3
Режим : Joint stereo
Расширение режима : MS Stereo
Идентификатор кодека : 55
Идентификатор кодека/Подсказка : MP3
Продолжительность : 12 м.
Вид битрейта : Постоянный
Битрейт : 128 Кбит/сек
Каналы : 2 канала
Частота : 48,0 КГц
Метод сжатия : С потерями
Задержка видео : 24 мс.
Размер потока : 11,9 Мбайт (9%)
Выравнивание : Соединение по промежуткам
Продолжительность промежутка : 80 мс. (2,00 видеокадра)
Время предзагрузки промежутка : 504 ms
Библиотека кодирования : LAME3.97b
Настройки программы : -m j -V 4 -q 2 -lowpass 17 -b 128

[/spoiler][/spoiler]
[spoiler="Номер 64. 2.10.2008, Джейми Коуп против Марка Уильямса ,Шанхай Мастерс"][spoiler="MediaInfo"]Общее
Полное имя : D:РелизыМаксимумыНомер 63. 29.04.2008, Али Картер против Питера Эбдона, Чемпионат Мира.avi
Формат : AVI
Формат/Информация : Audio Video Interleave
Размер файла : 40,1 Мбайт
Продолжительность : 15 м.
Общий поток : 356 Кбит/сек

Видео
Идентификатор : 0
Формат : MPEG-4 Visual
Профиль формата : Advanced Simple@L5
Параметр BVOP формата : 2
Параметр QPel формата : Нет
Параметр GMC формата : Без точки перехода
Параметр матрицы формата : Default (H.263)
Режим смешивания : Сжатый битовый поток
Идентификатор кодека : XVID
Идентификатор кодека/Подсказка : XviD
Продолжительность : 15 м.
Битрейт : 219 Кбит/сек
Ширина : 480 пикс.
Высота : 270 пикс.
Соотношение сторон : 16:9
Частота кадров : 25,000 кадр/сек
Цветовое пространство : YUV
Подвыборка цветности : 4:2:0
Битовая глубина : 8 бит
Тип развёртки : Прогрессивная
Метод сжатия : С потерями
Бит/(Пиксели*Кадры) : 0.068
Размер потока : 24,6 Мбайт (61%)
Библиотека кодирования : XviD 1.2.1 (UTC 2008-12-04)

Аудио
Идентификатор : 1
Формат : MPEG Audio
Версия формата : Version 1
Профиль формата : Layer 3
Режим : Joint stereo
Расширение режима : MS Stereo
Идентификатор кодека : 55
Идентификатор кодека/Подсказка : MP3
Продолжительность : 15 м.
Вид битрейта : Постоянный
Битрейт : 128 Кбит/сек
Каналы : 2 канала
Частота : 44,1 КГц
Метод сжатия : С потерями
Размер потока : 14,4 Мбайт (36%)
Выравнивание : Разделение по промежуткам
Продолжительность промежутка : 40 мс. (1,00 видеокадр)

[/spoiler][/spoiler]
[spoiler="Номер 67. 16.12.2008, Дин Джунху против Джона Хиггинса, Чемпионат Великобритании"][spoiler="MediaInfo"]Общее
Полное имя : D:РелизыМаксимумыНомер 64. 2.10.2008, Джейми Коуп против Марка Уильямса ,Шанхай Мастерс.mp4
Формат : MPEG-4
Профиль формата : Base Media / Version 2
Идентификатор кодека : mp42
Размер файла : 27,2 Мбайт
Продолжительность : 9 м. 29 с.
Общий поток : 400 Кбит/сек
Дата кодирования : UTC 2008-10-20 14:25:42
Дата пометки : UTC 2008-10-20 14:25:42
gsst : 0
gstd : 569793
gssd : B4A7DD0A8MH1292682513448885
gshh : v8.cache6.c.youtube.com

Видео
Идентификатор : 2
Формат : AVC
Формат/Информация : Advanced Video Codec
Профиль формата : Baseline@L2.1
Параметр CABAC формата : Нет
Параметр ReFrames формата : 1 кадр
Параметры GOP формата : M=1, N=61
Идентификатор кодека : avc1
Идентификатор кодека/Информация : Advanced Video Coding
Продолжительность : 9 м. 29 с.
Вид битрейта : Переменный
Битрейт : 273 Кбит/сек
Максимальный битрейт : 1219 Кбит/сек
Ширина : 480 пикс.
Высота : 360 пикс.
Соотношение сторон : 4:3
Режим частоты кадров : Постоянный
Частота кадров : 15,000 кадр/сек
Цветовое пространство : YUV
Подвыборка цветности : 4:2:0
Битовая глубина : 8 бит
Тип развёртки : Прогрессивная
Бит/(Пиксели*Кадры) : 0.105
Размер потока : 18,5 Мбайт (68%)
Заголовок : (C) 2007 Google Inc. v08.13.2007.
Дата кодирования : UTC 2008-10-20 14:25:43
Дата пометки : UTC 2008-10-20 14:25:43

Аудио
Идентификатор : 1
Формат : AAC
Формат/Информация : Advanced Audio Codec
Профиль формата : LC
Идентификатор кодека : 40
Продолжительность : 9 м. 29 с.
Вид битрейта : Переменный
Битрейт : 125 Кбит/сек
Максимальный битрейт : 145 Кбит/сек
Каналы : 2 канала
Расположение каналов : Front: L R
Частота : 44,1 КГц
Метод сжатия : С потерями
Размер потока : 8,51 Мбайт (31%)
Заголовок : (C) 2007 Google Inc. v08.13.2007.
Дата кодирования : UTC 2008-10-20 14:25:42
Дата пометки : UTC 2008-10-20 14:25:43

[/spoiler][/spoiler]
[spoiler="Номер 68. 28.04.2009, Стивен Хендри против Шона Мерфи,Чемпионат Мира"][spoiler="MediaInfo"]Общее
Полное имя : D:РелизыМаксимумыНомер 68. 28.04.2009, Стивен Хендри против Шона Мерфи,Чемпионат Мира.avi
Формат : AVI
Формат/Информация : Audio Video Interleave
Размер файла : 73,9 Мбайт
Продолжительность : 13 м.
Общий поток : 793 Кбит/сек
Библиотека кодирования : VirtualDub build 30586/release

Видео
Идентификатор : 0
Формат : MPEG-4 Visual
Профиль формата : Advanced Simple@L5
Параметр BVOP формата : 1
Параметр QPel формата : Нет
Параметр GMC формата : Без точки перехода
Параметр матрицы формата : Выборочная
Идентификатор кодека : XVID
Идентификатор кодека/Подсказка : XviD
Продолжительность : 13 м.
Битрейт : 655 Кбит/сек
Ширина : 704 пикс.
Высота : 528 пикс.
Соотношение сторон : 4:3
Частота кадров : 25,000 кадр/сек
Цветовое пространство : YUV
Подвыборка цветности : 4:2:0
Битовая глубина : 8 бит
Тип развёртки : Прогрессивная
Метод сжатия : С потерями
Бит/(Пиксели*Кадры) : 0.070
Размер потока : 61,1 Мбайт (83%)
Библиотека кодирования : XviD 1.2.1 (UTC 2008-12-04)

Аудио
Идентификатор : 1
Формат : MPEG Audio
Версия формата : Version 1
Профиль формата : Layer 3
Идентификатор кодека : 55
Идентификатор кодека/Подсказка : MP3
Продолжительность : 13 м.
Вид битрейта : Постоянный
Битрейт : 128 Кбит/сек
Каналы : 1 канал
Частота : 48,0 КГц
Метод сжатия : С потерями
Размер потока : 11,9 Мбайт (16%)
Выравнивание : Соединение по промежуткам
Продолжительность промежутка : 40 мс. (1,00 видеокадр)
Время предзагрузки промежутка : 504 ms
Библиотека кодирования : LAME3.98.2ЄЄЄЄЄЄЄЄЄЄ

[/spoiler][/spoiler]
[spoiler="Номер 70, 1.04.2010,Нил Робертсон против Питера Эбдона ,Открытый Чемпионат Китая"][spoiler="MediaInfo"]Общее
Полное имя : D:РелизыМаксимумыНомер 70, 1.04.2010,Нил Робертсон против Питера Эбдона ,Открытый Чемпионат Китая.avi
Формат : AVI
Формат/Информация : Audio Video Interleave
Размер файла : 30,0 Мбайт
Продолжительность : 14 м.
Общий поток : 290 Кбит/сек

Видео
Идентификатор : 0
Формат : MPEG-4 Visual
Профиль формата : Advanced Simple@L5
Параметр BVOP формата : 2
Параметр QPel формата : Нет
Параметр GMC формата : Без точки перехода
Параметр матрицы формата : Default (H.263)
Режим смешивания : Сжатый битовый поток
Идентификатор кодека : XVID
Идентификатор кодека/Подсказка : XviD
Продолжительность : 14 м.
Битрейт : 154 Кбит/сек
Ширина : 384 пикс.
Высота : 288 пикс.
Соотношение сторон : 4:3
Частота кадров : 25,000 кадр/сек
Цветовое пространство : YUV
Подвыборка цветности : 4:2:0
Битовая глубина : 8 бит
Тип развёртки : Прогрессивная
Метод сжатия : С потерями
Бит/(Пиксели*Кадры) : 0.056
Размер потока : 15,8 Мбайт (53%)
Библиотека кодирования : XviD 1.2.1 (UTC 2008-12-04)

Аудио
Идентификатор : 1
Формат : MPEG Audio
Версия формата : Version 1
Профиль формата : Layer 3
Режим : Joint stereo
Расширение режима : MS Stereo
Идентификатор кодека : 55
Идентификатор кодека/Подсказка : MP3
Продолжительность : 14 м.
Вид битрейта : Постоянный
Битрейт : 128 Кбит/сек
Каналы : 2 канала
Частота : 44,1 КГц
Метод сжатия : С потерями
Размер потока : 13,2 Мбайт (44%)
Выравнивание : Разделение по промежуткам
Продолжительность промежутка : 40 мс. (1,00 видеокадр)

[/spoiler][/spoiler]
[spoiler="Номер 73. 20.08.2010,Ронни О`Салливан против Марка Кинга, World Open"][spoiler="MediaInfo"]Общее
Полное имя : D:РелизыМаксимумыНомер 73. 20.08.2010,Ронни О`Салливан против Марка Кинга, World Open.avi
Формат : AVI
Формат/Информация : Audio Video Interleave
Размер файла : 136 Мбайт
Продолжительность : 11 м.
Общий поток : 1607 Кбит/сек
Программа кодирования : VirtualDubMod 1.5.10.2 (build 2540/release)
Библиотека кодирования : VirtualDubMod build 2540/release

Видео
Идентификатор : 0
Формат : MPEG-4 Visual
Профиль формата : Advanced Simple@L5
Параметр BVOP формата : 2
Параметр QPel формата : Нет
Параметр GMC формата : Без точки перехода
Параметр матрицы формата : Default (H.263)
Режим смешивания : Сжатый битовый поток
Идентификатор кодека : XVID
Идентификатор кодека/Подсказка : XviD
Продолжительность : 11 м.
Битрейт : 1349 Кбит/сек
Ширина : 720 пикс.
Высота : 408 пикс.
Соотношение сторон : 16:9
Частота кадров : 25,000 кадр/сек
Цветовое пространство : YUV
Подвыборка цветности : 4:2:0
Битовая глубина : 8 бит
Тип развёртки : Прогрессивная
Метод сжатия : С потерями
Бит/(Пиксели*Кадры) : 0.184
Размер потока : 114 Мбайт (84%)
Библиотека кодирования : XviD 1.2.1 (UTC 2008-12-04)

Аудио #1
Идентификатор : 1
Формат : MPEG Audio
Версия формата : Version 1
Профиль формата : Layer 3
Режим : Joint stereo
Расширение режима : MS Stereo
Идентификатор кодека : 55
Идентификатор кодека/Подсказка : MP3
Продолжительность : 10 м.
Вид битрейта : Постоянный
Битрейт : 128 Кбит/сек
Каналы : 2 канала
Частота : 48,0 КГц
Метод сжатия : С потерями
Размер потока : 9,80 Мбайт (7%)
Выравнивание : Соединение по промежуткам
Продолжительность промежутка : 44 мс. (1,10 видеокадр)
Время предзагрузки промежутка : 504 ms

Аудио #2
Идентификатор : 2
Формат : MPEG Audio
Версия формата : Version 1
Профиль формата : Layer 3
Режим : Joint stereo
Расширение режима : MS Stereo
Идентификатор кодека : 55
Идентификатор кодека/Подсказка : MP3
Продолжительность : 11 м.
Вид битрейта : Постоянный
Битрейт : 128 Кбит/сек
Каналы : 2 канала
Частота : 44,1 КГц
Метод сжатия : С потерями
Задержка видео : 16 мс.
Размер потока : 10,8 Мбайт (8%)
Выравнивание : Разделение по промежуткам
Продолжительность промежутка : 40 мс. (1,00 видеокадр)
Время предзагрузки промежутка : 500 ms
Библиотека кодирования : LAME3.98.2

[/spoiler][/spoiler]
[spoiler="Номер 77. 17 .02.2011,Стивен Хендри против Стивен Магуайера,Открытый Чемпионат Уэльса"][spoiler="MediaInfo"]Общее
Идентификатор : 1 (0x1)
Полное имя : D:РелизыМаксимумыНомер 77. 17 .02.2011,Стивен Хендри против Стивен Магуайера,Открытый Чемпионат Уэльса.ts
Формат : MPEG-TS
Размер файла : 353 Мбайт
Продолжительность : 12 м.
Общий поток : 4067 Кбит/сек

Видео
Идентификатор : 1300 (0x514)
Идентификатор меню : 1 (0x1)
Формат : AVC
Формат/Информация : Advanced Video Codec
Профиль формата : Main@L4.0
Параметр CABAC формата : Да
Параметр ReFrames формата : 4 кадра
Параметры GOP формата : M=1, N=12
Идентификатор кодека : 27
Продолжительность : 12 м.
Битрейт : 3672 Кбит/сек
Ширина : 1920 пикс.
Высота : 1080 пикс.
Соотношение сторон : 16:9
Частота кадров : 25,000 кадр/сек
Стандарт вещания : Component
Цветовое пространство : YUV
Подвыборка цветности : 4:2:0
Битовая глубина : 8 бит
Тип развёртки : Чересстрочная
Порядок развёртки : Верхнее поле первое
Бит/(Пиксели*Кадры) : 0.071
Размер потока : 319 Мбайт (90%)
Основные цвета : BT.709-5, BT.1361, IEC 61966-2-4, SMPTE RP177
Характеристики трансфера : BT.709-5, BT.1361
Коэффициенты матрицы : BT.709-5, BT.1361, IEC 61966-2-4 709, SMPTE RP177

Аудио
Идентификатор : 1310 (0x51E)
Идентификатор меню : 1 (0x1)
Формат : MPEG Audio
Версия формата : Version 1
Профиль формата : Layer 2
Идентификатор кодека : 3
Продолжительность : 12 м.
Вид битрейта : Постоянный
Битрейт : 192 Кбит/сек
Каналы : 2 канала
Частота : 48,0 КГц
Метод сжатия : С потерями
Размер потока : 16,7 Мбайт (5%)
Язык : Russian

[/spoiler][/spoiler]
[spoiler="Номер 78. 26.08.2011, Ронни О'Салливан против Адама Даффи,Euro Players Tour Championship 4"][spoiler="MediaInfo"]Общее
Идентификатор : 1 (0x1)
Полное имя : D:РелизыМаксимумыНомер 78. 26.08.2011, Ронни О'Салливан против Адама Даффи,Euro Players Tour Championship 4.ts
Формат : MPEG-TS
Размер файла : 728 Мбайт
Продолжительность : 9 м. 29 с.
Общий поток : 10,7 Мбит/сек

Видео
Идентификатор : 69 (0x45)
Идентификатор меню : 1 (0x1)
Формат : AVC
Формат/Информация : Advanced Video Codec
Профиль формата : High@L4.0
Параметр CABAC формата : Да
Параметр ReFrames формата : 4 кадра
Идентификатор кодека : 27
Продолжительность : 9 м. 29 с.
Битрейт : 10,0 Мбит/сек
Ширина : 1920 пикс.
Высота : 1080 пикс.
Соотношение сторон : 16:9
Частота кадров : 25,000 кадр/сек
Цветовое пространство : YUV
Подвыборка цветности : 4:2:0
Битовая глубина : 8 бит
Тип развёртки : MBAFF
Бит/(Пиксели*Кадры) : 0.193
Размер потока : 679 Мбайт (93%)
Основные цвета : BT.709-5, BT.1361, IEC 61966-2-4, SMPTE RP177
Характеристики трансфера : BT.709-5, BT.1361
Коэффициенты матрицы : BT.709-5, BT.1361, IEC 61966-2-4 709, SMPTE RP177

Аудио
Идентификатор : 68 (0x44)
Идентификатор меню : 1 (0x1)
Формат : MPEG Audio
Версия формата : Version 1
Профиль формата : Layer 2
Идентификатор кодека : 3
Продолжительность : 9 м. 29 с.
Вид битрейта : Постоянный
Битрейт : 192 Кбит/сек
Каналы : 2 канала
Частота : 48,0 КГц
Метод сжатия : С потерями
Размер потока : 13,0 Мбайт (2%)
Язык : Russian

[/spoiler][/spoiler]
[spoiler="Номер 81. 29.11.2011 ,Рикки Уолден против Гарета Аллена Players Tour Championship 10"][spoiler="MediaInfo"]Общее
Полное имя : D:РелизыМаксимумыНомер 81. 29.11.2011 ,Рикки Уолден против Гарета Аллена Players Tour Championship 10.mp4
Формат : MPEG-4
Профиль формата : Base Media / Version 2
Идентификатор кодека : mp42
Размер файла : 30,9 Мбайт
Продолжительность : 13 м.
Общий поток : 318 Кбит/сек
Дата кодирования : UTC 2011-12-01 05:51:37
Дата пометки : UTC 2011-12-01 05:51:37
gsst : 0
gstd : 815831
gssd : B4A7DDA82HH1324073065719623
gshh : v2.cache5.c.youtube.com

Видео
Идентификатор : 1
Формат : AVC
Формат/Информация : Advanced Video Codec
Профиль формата : Baseline@L2.1
Параметр CABAC формата : Нет
Параметр ReFrames формата : 1 кадр
Параметры GOP формата : M=1, N=60
Идентификатор кодека : avc1
Идентификатор кодека/Информация : Advanced Video Coding
Продолжительность : 13 м.
Вид битрейта : Переменный
Битрейт : 220 Кбит/сек
Максимальный битрейт : 659 Кбит/сек
Ширина : 512 пикс.
Высота : 288 пикс.
Соотношение сторон : 16:9
Режим частоты кадров : Постоянный
Частота кадров : 15,000 кадр/сек
Цветовое пространство : YUV
Подвыборка цветности : 4:2:0
Битовая глубина : 8 бит
Тип развёртки : Прогрессивная
Бит/(Пиксели*Кадры) : 0.099
Размер потока : 21,4 Мбайт (69%)
Дата пометки : UTC 2011-12-01 05:51:37

Аудио
Идентификатор : 2
Формат : AAC
Формат/Информация : Advanced Audio Codec
Профиль формата : LC
Идентификатор кодека : 40
Продолжительность : 13 м.
Вид битрейта : Переменный
Битрейт : 96,0 Кбит/сек
Максимальный битрейт : 108 Кбит/сек
Каналы : 2 канала
Расположение каналов : Front: L R
Частота : 44,1 КГц
Метод сжатия : С потерями
Размер потока : 9,33 Мбайт (30%)
Заголовок : IsoMedia File Produced by Google, 5-11-2011
Дата кодирования : UTC 2011-12-01 05:51:37
Дата пометки : UTC 2011-12-01 05:51:37

[/spoiler][/spoiler]
[spoiler="Номер75. 23.10.2010, Марк Уильямс против Дианы Шулер,Euro Players Tour Championship 3"][spoiler="MediaInfo"]Общее
Полное имя : D:РелизыМаксимумыНомер75. 23.10.2010, Марк Уильямс против Дианы Шулер,Euro Players Tour Championship 3.mp4
Формат : MPEG-4
Профиль формата : Base Media / Version 2
Идентификатор кодека : mp42
Размер файла : 25,5 Мбайт
Продолжительность : 6 м. 31 с.
Общий поток : 545 Кбит/сек
Дата кодирования : UTC 2010-10-31 16:43:54
Дата пометки : UTC 2010-10-31 16:43:54
gsst : 0
gstd : 392346
gssd : B4A7DD022MH1292700581520671
gshh : v2.cache2.c.youtube.com

Видео
Идентификатор : 2
Формат : AVC
Формат/Информация : Advanced Video Codec
Профиль формата : Baseline@L2.1
Параметр CABAC формата : Нет
Параметр ReFrames формата : 1 кадр
Идентификатор кодека : avc1
Идентификатор кодека/Информация : Advanced Video Coding
Продолжительность : 6 м. 31 с.
Вид битрейта : Переменный
Битрейт : 414 Кбит/сек
Максимальный битрейт : 994 Кбит/сек
Ширина : 480 пикс.
Высота : 360 пикс.
Соотношение сторон : 4:3
Режим частоты кадров : Постоянный
Частота кадров : 25,000 кадр/сек
Цветовое пространство : YUV
Подвыборка цветности : 4:2:0
Битовая глубина : 8 бит
Тип развёртки : Прогрессивная
Бит/(Пиксели*Кадры) : 0.096
Размер потока : 19,4 Мбайт (76%)
Заголовок : (C) 2007 Google Inc. v08.13.2007.
Дата кодирования : UTC 2010-10-31 16:43:54
Дата пометки : UTC 2010-10-31 16:43:55

Аудио
Идентификатор : 1
Формат : AAC
Формат/Информация : Advanced Audio Codec
Профиль формата : LC
Идентификатор кодека : 40
Продолжительность : 6 м. 31 с.
Вид битрейта : Переменный
Битрейт : 128 Кбит/сек
Максимальный битрейт : 149 Кбит/сек
Каналы : 2 канала
Расположение каналов : Front: L R
Частота : 44,1 КГц
Метод сжатия : С потерями
Размер потока : 5,99 Мбайт (24%)
Заголовок : (C) 2007 Google Inc. v08.13.2007.
Дата кодирования : UTC 2010-10-31 16:43:54
Дата пометки : UTC 2010-10-31 16:43:55

[/spoiler][/spoiler]

[spoiler="Скриншоты"][url=http://postimage.org/image/81kqz3hcj/][img]http://s5.postimage.org/81kqz3hcj/1a4d6b7f8abe.jpg[/img][/url] [url=http://postimage.org/image/58rjf2h03/] [img]http://s5.postimage.org/58rjf2h03/5c943ceaddbc.jpg[/img][/url] [url=http://postimage.org/image/piouu7i4z/][img]http://s5.postimage.org/piouu7i4z/92c41ecc1372.jpg[/img][/url] [url=http://postimage.org/image/60z9bdrir/][img]http://s5.postimage.org/60z9bdrir/816886fa24ef.jpg[/img][/url]

[url=http://postimage.org/image/5cqesfssz/][img]http://s5.postimage.org/5cqesfssz/7818822a5d80.jpg[/img][/url] [url=http://postimage.org/image/jkg3h35hv/][img]http://s5.postimage.org/jkg3h35hv/7818822a5d80.jpg[/img][/url] [url=http://postimage.org/image/b3gl660sz/][img]http://s5.postimage.org/b3gl660sz/c83d680741dd.jpg[/img][/url] [url=http://postimage.org/image/qq7ujjekz/][img]http://s5.postimage.org/qq7ujjekz/cfafa73d251a.jpg[/img][/url] [url=http://postimage.org/image/hjpjw99cj/][img]http://s5.postimage.org/hjpjw99cj/f98bcd7b707e.jpg[/img][/url] [url=http://postimage.org/image/tzm9q02oj/][img]http://s5.postimage.org/tzm9q02oj/fe38054fc771.jpg[/img][/url][/spoiler]

[b]Качество:[/b] TVRip
[b]Формат:[/b] AVI, MP4, TS
[b]Видео кодек:[/b] XviD
[b]Аудио кодек:[/b] MP3
[b]Видео:[/b] От MPEG4 Video (H264) 480x272 29.97fps
[b]Аудио:[/b] AAC 44100Hz stereo 1411kbps



   Похожие торренты   Торрент   Размер 
В этой теме нет новых непрочитанных сообщений. Снукер. Power Snooker 2011. Финал [Eurosport] (2011) TVRip

0 | 2

472.32 МБ

В этой теме нет новых непрочитанных сообщений. Снукер. UK Championship 2011. Day 5 [Eurosport 2] (2011) TVRip

0 | 2

2.59 ГБ

В этой теме нет новых непрочитанных сообщений. Хоккей. Чемпионат мира 1982 год. СССР - Канада (1982) TVRip

79 | 17

881.42 МБ

В этой теме нет новых непрочитанных сообщений. Снукер. Розовый брейк Ронни О'Салливана (2006) TVRip

16 | 3

90.92 МБ

В этой теме нет новых непрочитанных сообщений. Дыня (1982) TVRip

120 | 5

966.3 МБ

В этой теме нет новых непрочитанных сообщений. Дыня (1982) TVRip

68 | 35

877.8 МБ

В этой теме нет новых непрочитанных сообщений. Снукер. China Open 2012. День третий [Eurosport] (2012) TVRip

0 | 2

2.43 ГБ




Вы не можете начинать темы
Вы не можете отвечать на сообщения
Вы не можете редактировать свои сообщения
Вы не можете удалять свои сообщения
Вы не можете добавлять вложения

Перейти:  
Для Мосгорсуда, Роскомнадзора и рекламодателей: mosgorsud-torrent[собачка]yandex.ru
Настройки
ppkBB3cker v.2 © 2008-2014 @ PPK
[ Time : 0.018s | 16 Queries | GZIP : Off ]
CGP [Extreme] output time : 0.00018s | 0 Queries | GZIP : Off

Торрент трекер RUTOR.IN, Не можете зайти на rutor.org? Какой новый адрес рутор? Какое зеркало рутор? Не работает rutor.org и зеркала? Тогда наш торрент специально для вас. Rutor.in неофициальное зеркало rutor. В случае если у Вас заблокирован rutor или вдруг Вы не можете на него зайти, то Вы без труда сможете скачать бесплатно и без рекламы последние новинки кино, игр, сериалов и прочего у нас, на Rutor.in. Не нужно использовать прокси, чтобы зайти на рутор, достаточно воспользоваться нашим ресурсом. Все новые фильмы, игры, сериалы, книги и музыка за 2013 и 2014 годы через торрент бесплатно. Скачивайте фильмы в хорошем качестве, игры для пк, xbox, playstation без регистрации. У нас вы найдете новые Зарубежные сериалы и Русские сериалы 2013, 2014, 2015 годов. Оставайтесь с нами, качайте любимые фильмы, игры, сериалы, книги и музыку.