img image001 image001 image001 image001 image001 image001 image001 image001 image001 image001 image001 image001 image001 image001 image001

Planets Sun Sun Sun
Статистика раздачи
Автор: Снежана | Размер: 15 ГБ | Добавлен: 02 авг 2013
Раздают: 0    Качают: 1
Скачать торрент
Скачать торрент
Описание торрента

СообщениеДобавлено: 02 авг 2013 

GP2 2013. Этап 3. Испания



Вид спорта: Автогонки
Дата/Год выпуска: 10.05.13
Язык комментариев: русский(А. Попов и Н. Фабричнова)
Описание: квалификация, 1-я гонка, 2-я гонка

Автор записи: SashaR.

Качество: DVB-S2 Remux
Формат видео: TS
Видео: AVC, 1920x1080, 16:9, 12.2 Mbps, 25 fps
Аудио: MP2, 192 Kbps, 48.0 kHz, 2 channels
J:GP2 2013. Ýòàï 3. Èñïàíèÿ (HD)Êâàëèôèêàöèÿ.ts
General #6
ID : 6 (0x6)
Complete name : J:GP2 2013. Ýòàï 3. Èñïàíèÿ (HD)Êâàëèôèêàöèÿ.ts
Format : MPEG-TS
File size : 3.25 GiB
Duration : 35mn 38s
Overall bit rate : 13.0 Mbps
Video #303
ID : 303 (0x12F)
Menu ID : 20103 (0x4E87)
Format : AVC
Format/Info : Advanced Video Codec
Format profile : High@L4.0
Format settings, CABAC : Yes
Format settings, ReFrames : 3 frames
Format settings, GOP : M=4, N=28
Codec ID : 27
Duration : 35mn 38s
Bit rate : 12.2 Mbps
Width : 1 920 pixels
Height : 1 080 pixels
Display aspect ratio : 16:9
Frame rate : 25.000 fps
Standard : Component
Color space : YUV
Chroma subsampling : 4:2:0
Bit depth : 8 bits
Scan type : Interlaced
Scan order : Top Field First
Bits/(Pixel*Frame) : 0.236
Stream size : 3.04 GiB (94%)
Color primaries : BT.709-5, BT.1361, IEC 61966-2-4, SMPTE RP177
Transfer characteristics : BT.709-5, BT.1361
Matrix coefficients : BT.709-5, BT.1361, IEC 61966-2-4 709, SMPTE RP177
Audio #403
ID : 403 (0x193)
Menu ID : 20103 (0x4E87)
Format : MPEG Audio
Format version : Version 1
Format profile : Layer 2
Codec ID : 4
Duration : 35mn 38s
Bit rate mode : Constant
Bit rate : 192 Kbps
Channel(s) : 2 channels
Sampling rate : 48.0 KHz
Compression mode : Lossy
Delay relative to video : 48ms
Stream size : 48.9 MiB (1%)
Language : Russian

00:35:38 + 01:05:48 + 00:54:12




   Похожие торренты   Торрент   Размер 
В этой теме нет новых непрочитанных сообщений. Автоспорт. GP2 2013. Этап 03 из 11. Гран-при Испания. Квалификация, Гонка 1, Гонка 2 [Спорт 1] (2013) HDTVRip

0 | 1

1.99 ГБ

В этой теме нет новых непрочитанных сообщений. Автоспорт. GP2 2013. Этап 04 из 11. Гран-при Монако. Квалификация, Гонка 1, Гонка 2 [Спорт 1] (2013) DVB-S2 Remux

0 | 1

17.11 ГБ

В этой теме нет новых непрочитанных сообщений. Автоспорт. GP2 2013. Этап 02 из 11. Гран-при Бахрейна. Квалификация, Гонка 1, Гонка 2 [Спорт 1] (2013) HDTV 1080i

0 | 1

13.28 ГБ

В этой теме нет новых непрочитанных сообщений. Формула 1: Гран-при Канады 7 этап: 1-я, 2-я, 3-я практика, Квалификация, Гонка [Спорт 1] (2014) DVB-S2 Remux

2 | 23

45.78 ГБ

В этой теме нет новых непрочитанных сообщений. Формула 1. Сезон 2013. Этап 04. Гран При Бахрейна. Квалификация, Гонка [Спорт 1 HD] (2013) HDTV 1080i

1 | 2

18.46 ГБ

В этой теме нет новых непрочитанных сообщений. Автоспорт. World Touring Car Championship (WTCC). Этап 8. Аргентина. Разминка, Гонка 1, Гонка 2 (2013) DVB-S2 Remux

1 | 2

8.15 ГБ

В этой теме нет новых непрочитанных сообщений. Автоспорт. GP2. 2013. Этап 09. Италия. Monza. Квалификация. Гонка 1-2 (2013) HDTVRip

0 | 2

1.36 ГБ




Вы не можете начинать темы
Вы не можете отвечать на сообщения
Вы не можете редактировать свои сообщения
Вы не можете удалять свои сообщения
Вы не можете добавлять вложения

Перейти:  
Для Мосгорсуда, Роскомнадзора и рекламодателей: mosgorsud-torrent[собачка]yandex.ru
 Вход
ppkBB3cker v.2 © 2008-2014 @ PPK
[ Time : 0.032s | 15 Queries | GZIP : Off ]

cron