img image001 image001 image001 image001 image001 image001 image001 image001 image001 image001 image001 image001 image001 image001 image001 image001

Planets Sun Sun Sun
Статистика раздачи
Автор: Снежана | Размер: 9.78 ГБ | Добавлен: 02 авг 2013
Раздают: 0    Качают: 2
Скачать торрент
Скачать торрент
Описание торрента

СообщениеДобавлено: 02 авг 2013 

World Series by Renault 3.5 2013. Этап 04



Вид спорта: Автогонки
Дата/Год выпуска: 02.06.13
Язык комментариев: русский (Наталья Фабричнова, Алексей Попов)

World Series by Renault 3.5 2013. Этап 04
Race 1.ts
Race 2.ts

Автор записи: SashaR.

Качество: DVB-S2 Remux
Формат видео: TS
Видео: AVC, 1920x1080, 16:9, 11.7 Mbps, 25 fps
Аудио: MP2, 192 Kbps, 48.0 kHz, 2 channels
G:World Series by Renault 3.5 2013. Ýòàï 04Race 2.ts
General #6
ID : 6 (0x6)
Complete name : G:World Series by Renault 3.5 2013. Ýòàï 04Race 2.ts
Format : MPEG-TS
File size : 5.20 GiB
Duration : 59mn 16s
Overall bit rate : 12.6 Mbps
Video #303
ID : 303 (0x12F)
Menu ID : 20103 (0x4E87)
Format : AVC
Format/Info : Advanced Video Codec
Format profile : High@L4.0
Format settings, CABAC : Yes
Format settings, ReFrames : 3 frames
Codec ID : 27
Duration : 59mn 15s
Bit rate : 11.7 Mbps
Width : 1 920 pixels
Height : 1 080 pixels
Display aspect ratio : 16:9
Frame rate : 25.000 fps
Standard : Component
Color space : YUV
Chroma subsampling : 4:2:0
Bit depth : 8 bits
Scan type : Interlaced
Scan order : Top Field First
Bits/(Pixel*Frame) : 0.227
Stream size : 4.86 GiB (93%)
Color primaries : BT.709-5, BT.1361, IEC 61966-2-4, SMPTE RP177
Transfer characteristics : BT.709-5, BT.1361
Matrix coefficients : BT.709-5, BT.1361, IEC 61966-2-4 709, SMPTE RP177
Audio #403
ID : 403 (0x193)
Menu ID : 20103 (0x4E87)
Format : MPEG Audio
Format version : Version 1
Format profile : Layer 2
Codec ID : 4
Duration : 59mn 15s
Bit rate mode : Constant
Bit rate : 192 Kbps
Channel(s) : 2 channels
Sampling rate : 48.0 KHz
Compression mode : Lossy
Delay relative to video : 124ms
Stream size : 81.4 MiB (2%)
Language : Russian

00:59:16




   Похожие торренты   Торрент   Размер 
В этой теме нет новых непрочитанных сообщений. Автоспорт. IZOD IndyCar Series 2013. Этап 16. Baltimore. Race (2013) IPTVRip

0 | 2

5.85 ГБ

В этой теме нет новых непрочитанных сообщений. Автоспорт. IZOD IndyCar Series 2013. Этап 15. Sonoma. Гонка (2013) HDTVRip

0 | 2

5.18 ГБ

В этой теме нет новых непрочитанных сообщений. Автоспорт. IZOD IndyCar Series 2013. Этап 17. Grand Prix Of Houston. Гонка (2013) IPTVRip

0 | 1

3.61 ГБ

В этой теме нет новых непрочитанных сообщений. Автоспорт. IZOD IndyCar Series 2013. Этап 18. Grand Prix Of Houston. Гонка 2 (2013) IPTVRip

0 | 2

3.95 ГБ

В этой теме нет новых непрочитанных сообщений. Автоспорт. Verizon Indycar Series 2014. Этап 05. Indianapolis 500. Гонка (2014) DVB-S2 Remux 1080i

0 | 5

17.06 ГБ

В этой теме нет новых непрочитанных сообщений. Автоспорт. NASCAR Nationwide Series 2014. Этап 04 - Бристоль. Гонка (2013) HDTVRip

2 | 3

1.44 ГБ

В этой теме нет новых непрочитанных сообщений. Автоспорт. World Touring Car Championship (WTCC) 2014. Этап 05. Salzburg. Гонки 1 и 2 (2014) DVB-S2 Remux

0 | 2

5.86 ГБ




Вы не можете начинать темы
Вы не можете отвечать на сообщения
Вы не можете редактировать свои сообщения
Вы не можете удалять свои сообщения
Вы не можете добавлять вложения

Перейти:  
 Вход
ppkBB3cker v.2 © 2008-2014 @ PPK
[ Time : 0.106s | 17 Queries | GZIP : Off ]

cron