img image001 image001 image001 image001 image001 image001 image001 image001 image001 image001 image001 image001 image001 image001 image001

Planets Sun Sun Sun
Статистика раздачи
Автор: Снежана | Размер: 2.65 ГБ | Добавлен: 02 авг 2013
Раздают: 0    Качают: 2
Скачать торрент
Скачать торрент
Описание торрента

СообщениеДобавлено: 02 авг 2013 

World Series by Renault 3.5 2013. Этап 04



Вид спорта: Автогонки
Дата/Год выпуска: 02.06.13
Язык комментариев: русский (Наталья Фабричнова, Алексей Попов)

Автор рипа: SashaR.

Качество: HDTVRip
Формат видео: AVI
Видео: H264, 720x576, 16:9, 2250 Kbps, 50 fps
Аудио: MP3, 96 Kbps, 44.1 KHz, 2 channels
G:World Series by Renault 3.5 2013. Ýòàï 04 (SD)Race 2.avi
General
Complete name : G:World Series by Renault 3.5 2013. Ýòàï 04 (SD)Race 2.avi
Format : AVI
Format/Info : Audio Video Interleave
Format profile : OpenDML
File size : 1.34 GiB
Duration : 59mn 16s
Overall bit rate mode : Variable
Overall bit rate : 3 246 Kbps
Writing application : Lavf51.12.1
Video #0
ID : 0
Format : AVC
Format/Info : Advanced Video Codec
Format profile : Baseline@L3.0
Format settings, CABAC : No
Format settings, ReFrames : 1 frame
Format settings, GOP : M=1, N=12
Codec ID : H264
Duration : 59mn 16s
Bit rate mode : Variable
Bit rate : 3 130 Kbps
Maximum bit rate : 2 250 Kbps
Width : 720 pixels
Height : 576 pixels
Display aspect ratio : 1.278
Frame rate : 50.000 fps
Original frame rate : 24.000 fps
Standard : PAL
Color space : YUV
Chroma subsampling : 4:2:0
Bit depth : 8 bits
Scan type : Progressive
Bits/(Pixel*Frame) : 0.151
Stream size : 1.30 GiB (96%)
Audio #1
ID : 1
Format : MPEG Audio
Format version : Version 1
Format profile : Layer 3
Mode : Joint stereo
Mode extension : MS Stereo
Codec ID : 55
Codec ID/Hint : MP3
Duration : 59mn 15s
Bit rate mode : Constant
Bit rate : 96.0 Kbps
Channel(s) : 2 channels
Sampling rate : 44.1 KHz
Compression mode : Lossy
Stream size : 40.7 MiB (3%)
Alignment : Aligned on interleaves
Interleave, duration : 26 ms (1.31 video frame)

00:59:16




   Похожие торренты   Торрент   Размер 
В этой теме нет новых непрочитанных сообщений. Автоспорт. World Series by Renault 3.5 2013. Этап 04 Спа-Франкоршам (2013) DVB-S2 Remux

0 | 2

9.78 ГБ

В этой теме нет новых непрочитанных сообщений. Автоспорт. World Series by Renault. 2013. Этап 05. Moscow Raceway (Россия) [22.06] (2013) HDTVRip 720р

0 | 2

5.44 ГБ

В этой теме нет новых непрочитанных сообщений. Автоспорт. World Series by Renault. 2013. Этап 05. Moscow Raceway (Россия) [22.06] (2013) HDTV 1080i

0 | 2

16.67 ГБ

В этой теме нет новых непрочитанных сообщений. Автоспорт. World Series by Renault 3,5. Aragon. Гонка (2013) DVB-S2 Remux

0 | 2

7.83 ГБ

В этой теме нет новых непрочитанных сообщений. Автоспорт. World Series by Renault 03,05. Rd01 Italy. Monza Race 02 (2013) SATRip

1 | 2

1.44 ГБ

В этой теме нет новых непрочитанных сообщений. Автоспорт. World Series by Renault 03,05. Rd01 Italy. Monza Race 02 (2013) DVB-S2 Remux

0 | 2

5.14 ГБ

В этой теме нет новых непрочитанных сообщений. Автоспорт. World Series by Renault. WSBR. Round 01-02, Review. Monza. Race 01 (2013) IPTV

0 | 2

3.51 ГБ




Вы не можете начинать темы
Вы не можете отвечать на сообщения
Вы не можете редактировать свои сообщения
Вы не можете удалять свои сообщения
Вы не можете добавлять вложения

Перейти:  
Для Мосгорсуда, Роскомнадзора и рекламодателей: mosgorsud-torrent[собачка]yandex.ru
 Вход
ppkBB3cker v.2 © 2008-2014 @ PPK
[ Time : 0.023s | 15 Queries | GZIP : Off ]

cron