img image001 image001 image001 image001 image001 image001 image001 image001 image001 image001 image001 image001 image001 image001 image001

Planets Sun Sun Sun
Статистика раздачи
Автор: Снежана | Размер: 3.95 ГБ | Добавлен: 03 авг 2013
Раздают: 0    Качают: 2
Скачать торрент
Скачать торрент
Описание торрента

СообщениеДобавлено: 03 авг 2013 

Roland Garros 2013 / 1/2 финала / Серена Вильямс (США) - Сара Эррани (Италия).



Вид спорта: Теннис
Дата/Год выпуска: 06.06.13
Язык комментариев: русский

Автор записи: SashaR.

Качество: DVB-S2 Remux
Формат видео: TS
Видео: AVC, 1920x1080, 16:9, 8 847 Kbps, 25 fps
Аудио: MP2, 448 Kbps, 48.0 kHz, 2 channels
J:Roland Garros 2013 . Ïîëóôèíàë . Ñåðåíà Óèëüÿìñ (ÑØÀ) - Ñàðà Ýððàíè (Èòàëèÿ).ts
General #6
ID : 6 (0x6)
Complete name : J:Roland Garros 2013 . Ïîëóôèíàë . Ñåðåíà Óèëüÿìñ (ÑØÀ) - Ñàðà Ýððàíè (Èòàëèÿ).ts
Format : MPEG-TS
File size : 3.95 GiB
Duration : 59mn 23s
Overall bit rate : 9 511 Kbps
Video #324
ID : 324 (0x144)
Menu ID : 12104 (0x2F48)
Format : AVC
Format/Info : Advanced Video Codec
Format profile : High@L4.0
Format settings, CABAC : Yes
Format settings, ReFrames : 3 frames
Codec ID : 27
Duration : 59mn 22s
Bit rate : 8 847 Kbps
Width : 1 920 pixels
Height : 1 080 pixels
Display aspect ratio : 16:9
Frame rate : 25.000 fps
Standard : Component
Color space : YUV
Chroma subsampling : 4:2:0
Bit depth : 8 bits
Scan type : Interlaced
Scan order : Top Field First
Bits/(Pixel*Frame) : 0.171
Stream size : 3.67 GiB (93%)
Color primaries : BT.709-5, BT.1361, IEC 61966-2-4, SMPTE RP177
Transfer characteristics : BT.709-5, BT.1361
Matrix coefficients : BT.709-5, BT.1361, IEC 61966-2-4 709, SMPTE RP177
Audio #404
ID : 404 (0x194)
Menu ID : 12104 (0x2F48)
Format : MPEG Audio
Format version : Version 1
Format profile : Layer 2
Codec ID : 4
Duration : 59mn 23s
Bit rate mode : Constant
Bit rate : 192 Kbps
Channel(s) : 2 channels
Sampling rate : 48.0 KHz
Compression mode : Lossy
Delay relative to video : 58ms
Stream size : 81.6 MiB (2%)
Language : Russian
Language, more info : Clean effects

00:59:23





   Похожие торренты   Торрент   Размер 
В этой теме нет новых непрочитанных сообщений. Теннис. Roland Garros 2012. Финал. Сара Эррани (Италия) - Мария Шарапова (Россия) (2012) IPTV

6 | 2

3.05 ГБ

В этой теме нет новых непрочитанных сообщений. Теннис. Roland Garros 2012. Финал. Сара Эррани (Италия) - Мария Шарапова (Россия) (2012) HDTV 1080i

0 | 2

8.16 ГБ

В этой теме нет новых непрочитанных сообщений. Теннис. Roland Garros 2013. Парный финал. Екатерина Макарова, Елена Веснина - Сара Эррани, Роберта Винчи (2013) SATRemux

0 | 2

2.53 ГБ

В этой теме нет новых непрочитанных сообщений. Теннис. Roland Garros 2014. 1/4 Финала. Сара Эррани - Андреа Петкович (2014) HDTVRip 720p | 50 fps

2 | 2

1.27 ГБ

В этой теме нет новых непрочитанных сообщений. Теннис. Roland Garros 2013. Финал + Награждение. Серена Уильямс (США) - Мария Шарапова (Россия) (2013) SATRip

0 | 2

1.81 ГБ

В этой теме нет новых непрочитанных сообщений. Теннис. Roland Garros 2013. Финал + Награждение. Серена Уильямс (США) - Мария Шарапова (Россия) (2013) HDTVRip 720p

0 | 2

3.15 ГБ

В этой теме нет новых непрочитанных сообщений. Теннис. Roland Garros 2013. 1/4 финала. Мария Кириленко (Россия) - Виктория Азаренко (Белоруссия) (2013) SATRip

2 | 2

1.64 ГБ




Вы не можете начинать темы
Вы не можете отвечать на сообщения
Вы не можете редактировать свои сообщения
Вы не можете удалять свои сообщения
Вы не можете добавлять вложения

Перейти:  
Для Мосгорсуда, Роскомнадзора и рекламодателей: mosgorsud-torrent[собачка]yandex.ru
 Вход
ppkBB3cker v.2 © 2008-2014 @ PPK
[ Time : 0.021s | 15 Queries | GZIP : Off ]

Торрент трекер RUTOR.IN, Не можете зайти на rutor.org? Какой новый адрес рутор? Какое зеркало рутор? Не работает rutor.org и зеркала? Тогда наш торрент специально для вас. Rutor.in неофициальное зеркало rutor. В случае если у Вас заблокирован rutor или вдруг Вы не можете на него зайти, то Вы без труда сможете скачать бесплатно и без рекламы последние новинки кино, игр, сериалов и прочего у нас, на Rutor.in. Не нужно использовать прокси, чтобы зайти на рутор, достаточно воспользоваться нашим ресурсом. Все новые фильмы, игры, сериалы, книги и музыка за 2013 и 2014 годы через торрент бесплатно. Скачивайте фильмы в хорошем качестве, игры для пк, xbox, playstation без регистрации. У нас вы найдете новые Зарубежные сериалы и Русские сериалы 2013, 2014, 2015 годов. Оставайтесь с нами, качайте любимые фильмы, игры, сериалы, книги и музыку.
cron